<?xml version="1.0" encoding="UTF-8" standalone="no"?>
<!DOCTYPE svg  PUBLIC '-//W3C//DTD SVG 1.1//EN'  'http://www.w3.org/Graphics/SVG/1.1/DTD/svg11.dtd'>
<svg xmlns="http://www.w3.org/2000/svg">
<defs>
<font id="FranklinGothic-Book" horiz-adv-x="1201">
<font-face underline-position="-103" font-weight="400" descent="-410" panose-1="2 11 5 3 2 1 2 2 2 4" units-per-em="2048" unicode-range="U+0020-2666" bbox="-393 -429 2097 1878" x-height="1010" underline-thickness="102" font-family="FranklinGothic" ascent="1638" cap-height="1365"/>
<missing-glyph horiz-adv-x="2048"/>
<glyph glyph-name=".notdef" horiz-adv-x="2048"/>
<glyph glyph-name=".null" horiz-adv-x="0"/>
<glyph glyph-name="nonmarkingreturn" horiz-adv-x="2048"/>
<glyph glyph-name="space" horiz-adv-x="512" unicode=" "/>
<glyph glyph-name="exclam" horiz-adv-x="550" unicode="!" d="M380 0h-209v212h209v-212zM315 340h-84l-74 1025h236z"/>
<glyph glyph-name="quotedbl" horiz-adv-x="647" unicode='&quot;' d="M511 837h-100l-29 528h159zM236 837h-100l-30 528h160z"/>
<glyph glyph-name="numbersign" d="M773 842h-288l-50 -286h288zM1136 965l-21 -123h-210l-50 -286h209l-21 -123h-211l-77 -433h-130l77 433h-290l-77 -433h-130l77 433h-218l22 123h218l51 286h-219l22 123h219l71 400h130l-71 -400h287l72 400h130l-71 -400h211z" unicode="#"/>
<glyph glyph-name="dollar" d="M646 180q122 5 190.5 67t68.5 149q0 185 -259 221v-437zM524 1210q-103 -8 -164.5 -63t-61.5 -139q0 -165 226 -208v410zM646 -150h-122v193q-334 36 -428 313l135 53q78 -211 293 -229v464q-233 56 -302.5 146t-69.5 200q0 290 372 352v165h122v-165q295 -26 387 -264 l-136 -44q-55 163 -251 176v-428q413 -74 413 -372q0 -128 -94 -237.5t-319 -129.5v-193z" unicode="$"/>
<glyph glyph-name="percent" horiz-adv-x="1475" unicode="%" d="M1122 66q86 0 128.5 74t42.5 189q0 123 -43 206.5t-134 83.5q-173 0 -173 -273q0 -280 179 -280zM1120 -14q-133 0 -207.5 105t-74.5 252q0 148 72.5 250.5t206.5 102.5q140 0 211 -108t71 -250q0 -140 -73.5 -246t-205.5 -106zM388 0h-126l827 1365h124zM359 748 q86 0 128.5 75t42.5 189q0 127 -43.5 208t-133.5 81q-171 0 -171 -272q0 -281 177 -281zM357 669q-131 0 -206.5 104t-75.5 252q0 149 73 251.5t206 102.5q141 0 212.5 -108t71.5 -250q0 -141 -74 -246.5t-207 -105.5z"/>
<glyph glyph-name="ampersand" horiz-adv-x="1365" unicode="&amp;" d="M509 693q-142 -61 -195.5 -131.5t-53.5 -176.5q0 -145 92.5 -214t215.5 -69q156 0 269 109zM578 845q161 89 194 143t33 104q0 71 -51 122.5t-130 51.5q-72 0 -119 -45.5t-47 -102.5q0 -88 120 -273zM1291 144v-144q-91 -15 -148 -15q-42 0 -89.5 15t-138.5 109 q-162 -136 -366 -136q-207 0 -333.5 118.5t-126.5 286.5q0 134 89.5 247.5t264.5 170.5q-132 189 -132 311q0 116 83 201t221 85q140 0 229.5 -79t89.5 -213q0 -218 -287 -354l288 -436q140 177 185 436l146 -31q-61 -295 -251 -511q65 -71 146 -71q37 0 130 10z"/>
<glyph glyph-name="quotesingle" horiz-adv-x="371" unicode="&apos;" d="M236 837h-100l-30 528h160z"/>
<glyph glyph-name="parenleft" horiz-adv-x="601" unicode="(" d="M506 -341h-105q-294 386 -294 855q0 448 294 851h105q-253 -377 -253 -853q0 -454 253 -853z"/>
<glyph glyph-name="parenright" horiz-adv-x="601" unicode=")" d="M95 1365h104q295 -386 295 -855q0 -448 -295 -851h-104q253 377 253 853q0 454 -253 853z"/>
<glyph glyph-name="asterisk" d="M561 989l-38 376h154l-37 -376l354 155l47 -144l-388 -76l257 -282l-126 -88l-184 324l-183 -324l-126 88l256 282l-387 76l46 144z" unicode="*"/>
<glyph glyph-name="plus" d="M123 753h403v421h150v-421h403v-138h-403v-421h-150v421h-403v138z" unicode="+"/>
<glyph glyph-name="comma" horiz-adv-x="512" unicode="," d="M365 228v-205l-149 -280h-85l118 257h-102v228h218z"/>
<glyph glyph-name="hyphen" horiz-adv-x="512" unicode="-" d="M482 573v-122h-452v122h452z"/>
<glyph glyph-name="period" horiz-adv-x="512" unicode="." d="M368 224v-224h-223v224h223z"/>
<glyph glyph-name="slash" horiz-adv-x="930" unicode="/" d="M38 -341h-134l824 1706h134z"/>
<glyph glyph-name="zero" d="M603 107q173 0 256 156.5t83 393.5q0 259 -85 431t-262 172q-171 0 -254.5 -157t-83.5 -413q0 -266 88 -424.5t258 -158.5zM602 -27q-236 0 -377 204.5t-141 507.5q0 298 134 503t379 205q256 0 388.5 -214t132.5 -502q0 -282 -136 -493t-380 -211z" unicode="0"/>
<glyph glyph-name="one" d="M1144 127v-127h-956v127h410v1054q-181 -189 -376 -295v172q269 141 417 335h122v-1266h383z" unicode="1"/>
<glyph glyph-name="two" d="M1075 142v-142h-969v142q574 430 684.5 566.5t110.5 270.5q0 125 -93 202t-214 77q-125 0 -221 -84.5t-108 -229.5l-159 48q100 401 490 401q211 0 343 -120t132 -293q0 -119 -62.5 -229t-236.5 -263t-450 -346h753z" unicode="2"/>
<glyph glyph-name="three" d="M396 642v136h156q171 0 244.5 70t73.5 170q0 110 -82 174.5t-206 64.5q-230 0 -318 -222l-154 44q132 314 488 314q200 0 323 -106.5t123 -256.5q0 -116 -74 -202.5t-190 -108.5q130 -19 223.5 -109t93.5 -233q0 -171 -139 -287.5t-381 -116.5q-192 0 -328.5 91 t-188.5 242l159 53q72 -247 355 -247q184 0 264.5 78.5t80.5 187.5q0 118 -96.5 191t-270.5 73h-156z" unicode="3"/>
<glyph glyph-name="four" d="M738 460v646q0 70 3 151q-43 -79 -74 -128l-426 -669h497zM903 0h-165v325h-675v115l626 954h214v-934h221v-135h-221v-325z" unicode="4"/>
<glyph glyph-name="five" d="M1001 1365l-14 -147h-671l-29 -443q152 149 334 149q192 0 331.5 -133t139.5 -340q0 -210 -151.5 -344t-370.5 -134q-172 0 -306 90t-176 233l146 50q90 -238 338 -238q163 0 259 96.5t96 246.5q0 157 -95 245t-228 88q-194 0 -321 -186l-135 29l44 738h809z" unicode="5"/>
<glyph glyph-name="six" d="M630 110q145 0 237.5 95.5t92.5 229.5q0 132 -90.5 226.5t-224.5 94.5q-138 0 -241 -99t-103 -232q0 -123 92 -219t237 -96zM1097 1086l-154 -42q-79 208 -288 208q-384 0 -393 -635q61 141 173 209t237 68q190 0 318.5 -132.5t128.5 -317.5q0 -192 -136.5 -331.5 t-349.5 -139.5q-242 0 -385.5 182.5t-143.5 496.5q0 307 135.5 524t419.5 217q327 0 438 -307z" unicode="6"/>
<glyph glyph-name="seven" d="M575 0h-176q0 343 140 667.5t343 547.5h-741l17 150h902v-102q-244 -294 -365 -612t-121 -604q0 -16 1 -47z" unicode="7"/>
<glyph glyph-name="eight" d="M587 636q-346 -82 -346 -289q0 -108 94.5 -176.5t278.5 -68.5q156 0 251 67t95 171q0 199 -373 296zM606 793q172 46 243 106t71 150q0 105 -84.5 159.5t-222.5 54.5q-132 0 -216 -57.5t-84 -154.5q0 -96 93.5 -166t199.5 -92zM399 708q-259 113 -259 328 q0 156 129 256.5t342 100.5q210 0 334 -96.5t124 -252.5q0 -217 -265 -311q214 -99 268.5 -191t54.5 -184q0 -164 -139.5 -274.5t-378.5 -110.5q-255 0 -395 112.5t-140 267.5q0 231 325 355z" unicode="8"/>
<glyph glyph-name="nine" d="M570 610q141 0 236.5 98.5t95.5 230.5q0 128 -90.5 220t-238.5 92q-150 0 -237 -94.5t-87 -230.5q0 -146 96.5 -231t224.5 -85zM117 249l137 50q85 -189 286 -189q195 0 293.5 164t101.5 445q-134 -246 -403 -246q-190 0 -319 129.5t-129 320.5q0 194 135.5 332 t345.5 138q257 0 394 -180.5t137 -496.5q0 -332 -145 -537.5t-413 -205.5q-313 0 -421 276z" unicode="9"/>
<glyph glyph-name="colon" horiz-adv-x="512" unicode=":" d="M368 225v-225h-223v225h223zM368 1010v-224h-223v224h223z"/>
<glyph glyph-name="semicolon" horiz-adv-x="512" unicode=";" d="M365 228v-205l-151 -278h-83l117 255h-102v228h219zM365 1010v-221h-219v221h219z"/>
<glyph glyph-name="semicolon" horiz-adv-x="512" unicode=";" d="M365 228v-205l-151 -278h-83l117 255h-102v228h219zM365 1010v-221h-219v221h219z"/>
<glyph glyph-name="less" d="M1024 1159v-152l-723 -331l723 -331v-151l-887 416v133z" unicode="&lt;"/>
<glyph glyph-name="equal" d="M123 606h956v-138h-956v138zM123 931h956v-138h-956v138z" unicode="="/>
<glyph glyph-name="greater" d="M177 194v152l724 331l-724 331v151l887 -417v-132z" unicode="&gt;"/>
<glyph glyph-name="question" horiz-adv-x="1035" unicode="?" d="M571 197v-197h-202v197h202zM537 340h-144q1 156 4.5 194.5t21.5 77t40.5 60t106.5 68.5q91 51 125.5 79.5t60 79t25.5 110.5q0 114 -82.5 179t-194.5 65q-254 0 -310 -295l-149 32q75 403 467 403q200 0 323 -109.5t123 -280.5q0 -223 -256 -356q-112 -59 -137 -92.5 t-25 -104.5z"/>
<glyph glyph-name="at" horiz-adv-x="1526" unicode="@" d="M723 415q87 0 151.5 89.5t64.5 207.5q0 96 -51 155t-123 59q-86 0 -148.5 -77t-62.5 -199q0 -107 49.5 -171t119.5 -64zM1113 1042l-56 -467q-6 -52 -6 -90q0 -69 67 -69q75 0 139 106t64 249q0 226 -153.5 362t-379.5 136q-235 0 -404 -168.5t-169 -419.5 q0 -235 160 -408.5t447 -173.5q227 0 448 113l44 -121q-234 -118 -492 -118q-341 0 -540.5 209.5t-199.5 499.5q0 304 208 507.5t503 203.5q278 0 464.5 -176.5t186.5 -432.5q0 -197 -100.5 -347.5t-244.5 -150.5q-118 0 -160 122q-94 -126 -225 -126q-134 0 -224.5 106 t-90.5 267q0 176 103 290t250 114q140 0 215 -116l12 99h134z"/>
<glyph glyph-name="A" horiz-adv-x="1097" unicode="A" d="M741 527l-210 656l-212 -656h422zM1090 0h-175l-138 399h-505l-122 -399h-143l443 1365h195z"/>
<glyph glyph-name="B" horiz-adv-x="1238" unicode="B" d="M336 150h366q134 0 207 65t73 169q0 73 -33 135.5t-93 96.5t-179 34h-341v-500zM336 780h297q185 0 247 70.5t62 165.5q0 94 -66.5 152t-198.5 58h-341v-446zM171 0v1365h540q204 0 302.5 -100t98.5 -232q0 -232 -242 -308q144 -37 214 -132t70 -215 q0 -161 -108.5 -269.5t-334.5 -108.5h-540z"/>
<glyph glyph-name="C" horiz-adv-x="1186" unicode="C" d="M989 459l156 -35q-112 -451 -506 -451q-259 0 -406.5 209t-147.5 514q0 315 154 506t413 191q384 0 493 -439l-161 -32q-88 326 -333 326q-181 0 -280.5 -151.5t-99.5 -425.5q0 -251 102 -402.5t270 -151.5q261 0 346 342z"/>
<glyph glyph-name="D" horiz-adv-x="1325" unicode="D" d="M342 145h277q220 0 334 152t114 401q0 202 -108.5 363t-339.5 161h-277v-1077zM171 0v1365h458q289 0 450 -197t161 -482q0 -289 -157 -487.5t-398 -198.5h-514z"/>
<glyph glyph-name="E" horiz-adv-x="1122" unicode="E" d="M1054 150v-150h-883v1365h864v-150h-693v-434h550v-139h-550v-492h712z"/>
<glyph glyph-name="F" horiz-adv-x="1040" unicode="F" d="M342 0h-171v1365h836v-150h-665v-431h551v-138h-551v-646z"/>
<glyph glyph-name="G" horiz-adv-x="1325" unicode="G" d="M1182 688v-706h-105l-47 171q-126 -180 -375 -180q-270 0 -420 203t-150 493q0 310 159 517t432 207q377 0 492 -396l-162 -39q-35 152 -131 221t-210 69q-202 0 -298 -163t-96 -409q0 -265 107.5 -414.5t292.5 -149.5q144 0 240.5 95.5t96.5 263.5q0 31 -2 74h-338v143 h514z"/>
<glyph glyph-name="H" horiz-adv-x="1316" unicode="H" d="M1146 0h-171v650h-633v-650h-171v1365h171v-565h633v565h171v-1365z"/>
<glyph glyph-name="I" horiz-adv-x="512" unicode="I" d="M342 0h-171v1365h171v-1365z"/>
<glyph glyph-name="J" horiz-adv-x="765" unicode="J" d="M608 1365v-948q0 -248 -112 -346t-297 -98q-99 0 -199 27v140q98 -20 178 -20q114 0 168 34t72.5 88t18.5 175v948h171z"/>
<glyph glyph-name="K" horiz-adv-x="1287" unicode="K" d="M1250 0h-187l-408 753l-313 -389v-364h-171v1365h171v-792l617 792h185l-370 -478z"/>
<glyph glyph-name="L" horiz-adv-x="1003" unicode="L" d="M977 150v-150h-806v1365h175v-1215h631z"/>
<glyph glyph-name="M" horiz-adv-x="1659" unicode="M" d="M1489 0h-166v1192l-444 -1192h-116l-447 1192v-1192h-145v1365h254l411 -1092l403 1092h250v-1365z"/>
<glyph glyph-name="N" horiz-adv-x="1346" unicode="N" d="M1176 0h-166l-706 1190l2 -90q3 -51 3 -86v-1014h-138v1365h214l660 -1113l-2 95q-2 56 -2 99v919h135v-1365z"/>
<glyph glyph-name="O" horiz-adv-x="1292" unicode="O" d="M646 112q179 0 280 163t101 420q0 264 -104.5 411t-277.5 147q-175 0 -278 -159t-103 -416q0 -251 104 -408.5t278 -157.5zM642 -27q-263 0 -410 204.5t-147 501.5q0 310 154 512t408 202q253 0 406 -198.5t153 -500.5q0 -290 -148.5 -505.5t-415.5 -215.5z"/>
<glyph glyph-name="P" horiz-adv-x="1145" unicode="P" d="M342 696h314q121 0 195 72.5t74 191.5q0 102 -66 182t-191 80h-326v-526zM342 0h-171v1365h484q227 0 335 -123.5t108 -281.5q0 -176 -117.5 -291t-307.5 -115h-331v-554z"/>
<glyph glyph-name="Q" horiz-adv-x="1292" unicode="Q" d="M646 112q179 0 280 163t101 420q0 264 -104.5 411t-277.5 147q-175 0 -278 -159t-103 -416q0 -251 104 -408.5t278 -157.5zM647 -27q-263 0 -412.5 200.5t-149.5 499.5q0 318 155 519t406 201q245 0 402.5 -192t157.5 -507q0 -262 -118 -459t-302 -245l-1 -19 q0 -151 182 -151q87 0 157 13v-137q-68 -21 -141 -21q-157 0 -241.5 66.5t-94.5 231.5z"/>
<glyph glyph-name="R" horiz-adv-x="1255" unicode="R" d="M331 730h357q141 0 210.5 74.5t69.5 182.5t-73.5 168t-185.5 60h-378v-485zM1153 0h-179l-252 591h-391v-591h-160v1365h538q219 0 324.5 -119.5t105.5 -261.5q0 -109 -59 -209t-195 -143z"/>
<glyph glyph-name="S" horiz-adv-x="1166" unicode="S" d="M21 363l154 35q93 -279 403 -279q162 0 244 68.5t82 183.5q0 87 -62.5 140t-144.5 73l-273 68q-106 27 -173.5 65.5t-114.5 118.5t-47 183q0 171 129 272.5t331 101.5q372 0 489 -337l-155 -46q-27 120 -127 181.5t-213 61.5q-112 0 -199.5 -59t-87.5 -167 q0 -151 222 -204l255 -61q350 -84 350 -377q0 -177 -131.5 -294.5t-370.5 -117.5q-424 0 -560 390z"/>
<glyph glyph-name="T" horiz-adv-x="994" unicode="T" d="M582 0h-170v1215h-391v150h953v-150h-392v-1215z"/>
<glyph glyph-name="U" horiz-adv-x="1241" unicode="U" d="M949 1365h142v-891q0 -268 -131.5 -384.5t-344.5 -116.5q-237 0 -351 120t-114 381v891h171v-891q0 -159 37 -224t112 -96t157 -31q158 0 240 83t82 268v891z"/>
<glyph glyph-name="V" horiz-adv-x="1099" unicode="V" d="M1092 1365l-460 -1365h-165l-460 1365h178l381 -1126l377 1126h149z"/>
<glyph glyph-name="W" horiz-adv-x="1674" unicode="W" d="M1635 1365l-329 -1365h-171l-298 1059l-277 -1059h-175l-346 1365h177l273 -1106l290 1106h138l313 -1106l255 1106h150z"/>
<glyph glyph-name="X" horiz-adv-x="1065" unicode="X" d="M1005 1365l-383 -625l438 -740h-193l-345 582l-358 -582h-159l437 706l-389 659h191l299 -504l306 504h156z"/>
<glyph glyph-name="Y" horiz-adv-x="1045" unicode="Y" d="M1065 1365l-457 -791v-574h-171v574l-457 791h201l363 -628l365 628h156z"/>
<glyph glyph-name="Z" horiz-adv-x="1066" unicode="Z" d="M1019 146v-146h-963v146l741 1071h-707v139h907v-114l-750 -1096h772z"/>
<glyph glyph-name="bracketleft" horiz-adv-x="601" unicode="[" d="M516 -341h-354v1706h354v-105h-217v-1496h217v-105z"/>
<glyph glyph-name="backslash" horiz-adv-x="930" unicode="\" d="M892 -341l-824 1706h134l824 -1706h-134z"/>
<glyph glyph-name="bracketright" horiz-adv-x="601" unicode="]" d="M85 1365h354v-1706h-354v105h217v1496h-217v105z"/>
<glyph glyph-name="asciicircum" horiz-adv-x="1024" unicode="^" d="M974 745h-167l-297 503l-295 -503h-165l361 624h201z"/>
<glyph glyph-name="underscore" horiz-adv-x="1024" unicode="_" d="M0 -136h1024v-137h-1024v137z"/>
<glyph glyph-name="grave" horiz-adv-x="1024" unicode="`" d="M188 1356l62 120l395 -228l-42 -81z"/>
<glyph glyph-name="a" horiz-adv-x="1083" unicode="a" d="M774 505q-96 6 -146 6q-186 0 -289 -61t-103 -178q0 -74 55.5 -126t160.5 -52q142 0 233.5 103t91.5 242q0 28 -3 66zM948 0h-156q-9 48 -18 182q-104 -209 -354 -209q-170 0 -261 90t-91 216q0 153 130 251.5t442 98.5q42 0 134 -4q0 120 -18.5 173.5t-78.5 85.5 t-158 32q-239 0 -278 -182l-145 25q53 279 446 279q209 0 296.5 -92.5t87.5 -320.5v-429q0 -107 22 -196z"/>
<glyph glyph-name="b" horiz-adv-x="1100" unicode="b" d="M314 396q11 -155 95.5 -225t178.5 -70q120 0 193.5 104t73.5 285q0 195 -71 306.5t-197 111.5q-99 0 -178.5 -79.5t-94.5 -205.5v-227zM233 0h-76v1365h157v-523q108 196 298 196q174 0 291.5 -137t117.5 -398q0 -225 -115.5 -377.5t-300.5 -152.5q-206 0 -316 194z"/>
<glyph glyph-name="c" horiz-adv-x="954" unicode="c" d="M754 354l142 -25q-30 -167 -133 -261.5t-257 -94.5q-209 0 -318.5 154t-109.5 376q0 230 115.5 382.5t314.5 152.5q165 0 264.5 -98.5t123.5 -254.5l-142 -27q-40 250 -242 250q-130 0 -200 -110.5t-70 -286.5q0 -194 69.5 -301.5t195.5 -107.5q195 0 247 252z"/>
<glyph glyph-name="d" horiz-adv-x="1103" unicode="d" d="M789 620q0 133 -81 213t-189 80q-117 0 -192.5 -104t-75.5 -292q0 -203 69.5 -309t190.5 -106q110 0 194 92t84 216v210zM946 1365v-1365h-143v173q-106 -200 -319 -200q-177 0 -291 148.5t-114 375.5q0 232 113 386.5t300 154.5q182 0 297 -166v493h157z"/>
<glyph glyph-name="e" horiz-adv-x="1066" unicode="e" d="M815 608q-2 85 -28 151t-88 112.5t-149 46.5q-117 0 -198.5 -84t-91.5 -226h555zM824 301l146 -30q-40 -129 -156 -213.5t-273 -84.5q-207 0 -335 145.5t-128 381.5q0 241 133 389.5t334 148.5q198 0 318.5 -137t123.5 -410h-734q0 -229 96 -309t203 -80q193 0 272 199z "/>
<glyph glyph-name="f" horiz-adv-x="614" unicode="f" d="M576 1010v-123h-240v-887h-157v887h-172v123h172q4 243 93.5 313t218.5 70q63 0 144 -14v-125q-51 13 -97 13q-103 0 -152.5 -45.5t-49.5 -170.5v-41h240z"/>
<glyph glyph-name="g" horiz-adv-x="1006" unicode="g" d="M314 41q-110 -48 -110 -139q0 -77 90.5 -119.5t230.5 -42.5q130 0 238 36.5t108 123.5q0 47 -32 77t-87.5 38t-193.5 12q-165 4 -244 14zM502 468q100 0 163 61.5t63 159.5q0 100 -65.5 163.5t-158.5 63.5q-89 0 -158 -59.5t-69 -169.5q0 -98 62 -158.5t163 -60.5z M982 1168v-125q-108 0 -144.5 -25t-48.5 -90q97 -112 97 -244q0 -138 -105.5 -237t-283.5 -99q-40 0 -69 6q-55 11 -69 11q-27 0 -65 -26.5t-38 -68.5q0 -60 55 -78t259 -23q173 -5 255.5 -23.5t139.5 -82t57 -155.5q0 -289 -508 -289q-241 0 -351.5 72.5t-110.5 193.5 q0 147 154 202q-99 65 -99 163q0 117 140 179q-131 106 -131 267q0 150 112 246t273 96q114 0 207 -43q15 99 69.5 137t165.5 38q11 0 39 -2z"/>
<glyph glyph-name="h" horiz-adv-x="1106" unicode="h" d="M949 0h-157v613q0 108 -13.5 162t-64 93.5t-116.5 39.5q-121 0 -202.5 -99t-81.5 -265v-544h-157v1365h157v-541q107 214 306 214q89 0 158.5 -35t106.5 -92t50.5 -112.5t13.5 -185.5v-613z"/>
<glyph glyph-name="i" horiz-adv-x="470" unicode="i" d="M314 1010v-1010h-157v1010h157zM319 1365v-174h-169v174h169z"/>
<glyph glyph-name="j" horiz-adv-x="469" unicode="j" d="M314 1021v-1052q0 -178 -84.5 -248t-206.5 -70q-60 0 -147 21v124q65 -16 115 -16q89 0 127.5 42.5t38.5 146.5v1052h157zM322 1365v-174h-178v174h178z"/>
<glyph glyph-name="k" horiz-adv-x="1026" unicode="k" d="M991 0h-163l-295 564l-219 -252v-312h-157v1365h157v-874l469 519h168l-316 -355z"/>
<glyph glyph-name="l" horiz-adv-x="471" unicode="l" d="M314 0h-157v1365h157v-1365z"/>
<glyph glyph-name="m" horiz-adv-x="1667" unicode="m" d="M1510 0h-153v628q0 97 -13.5 145.5t-65.5 89t-117 40.5q-90 0 -173.5 -82.5t-83.5 -251.5v-569h-152v665q0 133 -63.5 188t-133.5 55q-100 0 -174 -86t-74 -218v-604h-150v1010h135v-194q113 222 311 222q109 0 185 -71t98 -171q104 242 319 242q103 0 180.5 -59 t101 -135.5t23.5 -215.5v-628z"/>
<glyph glyph-name="n" horiz-adv-x="1110" unicode="n" d="M953 0h-147v649q0 140 -61 197t-148 57q-120 0 -201.5 -96t-81.5 -253v-554h-157v1010h146v-186q123 214 319 214q113 0 192.5 -58.5t109 -131.5t29.5 -264v-584z"/>
<glyph glyph-name="o" horiz-adv-x="1064" unicode="o" d="M531 102q120 0 201 99t81 308q0 210 -85 304.5t-199 94.5q-117 0 -198 -95.5t-81 -302.5q0 -219 81 -313.5t200 -94.5zM519 -27q-208 0 -324.5 154t-116.5 382q0 241 131 385t326 144q209 0 329.5 -151.5t120.5 -378.5q0 -236 -130 -385.5t-336 -149.5z"/>
<glyph glyph-name="p" horiz-adv-x="1094" unicode="p" d="M314 651v-284q15 -115 97 -190t171 -75q103 0 182.5 90t79.5 311q0 191 -72 294.5t-191 103.5q-94 0 -168.5 -73t-98.5 -177zM314 -341h-157v1351h141v-196q107 224 319 224q179 0 289 -149.5t110 -378.5q0 -247 -113 -392t-290 -145q-190 0 -299 181v-495z"/>
<glyph glyph-name="q" horiz-adv-x="1097" unicode="q" d="M783 584q-13 178 -95.5 251t-174.5 73q-117 0 -190 -111t-73 -293q0 -178 69.5 -287.5t190.5 -109.5q122 0 197.5 104.5t75.5 238.5v134zM940 1024v-1365h-157v525q-99 -211 -305 -211q-172 0 -286 138.5t-114 385.5q0 235 114 388t300 153q88 0 160.5 -35t146.5 -158 l62 179h79z"/>
<glyph glyph-name="r" horiz-adv-x="675" unicode="r" d="M314 0h-157v1010h138v-236q73 167 146.5 216.5t150.5 49.5q24 0 62 -4v-150h-32q-130 0 -216 -97t-92 -255v-534z"/>
<glyph glyph-name="s" horiz-adv-x="950" unicode="s" d="M21 262l150 31q50 -191 316 -191q98 0 166 44t68 124q0 119 -173 151l-213 40q-125 24 -199 94t-74 185q0 127 101 212.5t272 85.5q329 0 406 -257l-144 -31q-62 158 -255 158q-96 0 -157.5 -39.5t-61.5 -110.5q0 -112 157 -141l197 -35q309 -56 309 -299 q0 -139 -115 -224.5t-306 -85.5q-359 0 -444 289z"/>
<glyph glyph-name="t" horiz-adv-x="630" unicode="t" d="M615 108v-124q-83 -11 -144 -11q-293 0 -293 306v608h-179v123h179l7 254l146 14v-268h226v-123h-226v-634q0 -156 162 -156q54 0 122 11z"/>
<glyph glyph-name="u" horiz-adv-x="1109" unicode="u" d="M952 0h-141v193q-108 -220 -322 -220q-155 0 -243.5 102t-88.5 290v645h157v-645q0 -150 62.5 -206.5t137.5 -56.5q76 0 137.5 43t102.5 122.5t41 173.5v569h157v-1010z"/>
<glyph glyph-name="v" horiz-adv-x="922" unicode="v" d="M897 1010l-349 -1010h-163l-361 1010h174l281 -821l278 821h140z"/>
<glyph glyph-name="w" horiz-adv-x="1360" unicode="w" d="M1321 1010l-291 -1010h-127l-226 750l-207 -750h-129l-303 1010h158l219 -753l210 753h115l227 -756l227 756h127z"/>
<glyph glyph-name="x" horiz-adv-x="868" unicode="x" d="M861 0h-181l-257 410l-263 -410h-153l340 524l-307 486h181l216 -345l220 345h151l-294 -452z"/>
<glyph glyph-name="y" horiz-adv-x="850" unicode="y" d="M850 1010l-405 -1128q-88 -244 -281 -244q-61 0 -135 21v123q61 -14 105 -14q75 0 125.5 43t100.5 208l-349 991h160l270 -759l277 759h132z"/>
<glyph glyph-name="z" horiz-adv-x="867" unicode="z" d="M812 121v-121h-744v121l537 766h-496v123h703v-85l-556 -804h556z"/>
<glyph glyph-name="braceleft" horiz-adv-x="601" unicode="{" d="M246 511q126 -55 126 -231v-330q0 -107 37.5 -145.5t150.5 -39.5v-106l-35 -1q-160 0 -225 66.5t-65 225.5v330q0 93 -29.5 131.5t-87.5 53.5v99q57 14 87 52.5t30 125.5v355q0 147 69.5 208t212.5 61q14 0 43 -1v-106q-113 -3 -150.5 -40.5t-37.5 -136.5v-346 q0 -67 -20.5 -127.5t-105.5 -97.5z"/>
<glyph glyph-name="bar" horiz-adv-x="1024" unicode="|" d="M436 1365h153v-1706h-153v1706z"/>
<glyph glyph-name="braceright" horiz-adv-x="601" unicode="}" d="M355 513q-126 55 -126 231v330q0 107 -37.5 145.5t-150.5 39.5v106l34 1q168 0 229 -68.5t61 -223.5v-330q0 -88 27 -128t91 -57v-99q-56 -14 -87 -52.5t-31 -125.5v-355q0 -130 -60.5 -199.5t-220.5 -69.5q-14 0 -43 1v106q112 3 150 40.5t38 136.5v346q0 71 21 130 t105 95z"/>
<glyph glyph-name="asciitilde" d="M108 585q107 238 281 238q84 0 229 -70q134 -64 199 -64q106 0 184 137l92 -54q-114 -231 -280 -231q-84 0 -256 81q-112 52 -184 52q-96 0 -175 -147z" unicode="~"/>
<glyph glyph-name="uni00A0" horiz-adv-x="512" unicode=" "/>
<glyph glyph-name="exclamdown" horiz-adv-x="550" unicode="¡" d="M236 684h83l74 -1025h-236zM171 1010h208v-211h-208v211z"/>
<glyph glyph-name="cent" d="M555 1051q-200 -44 -200 -359q0 -286 200 -343v702zM667 -57h-112v283q-138 20 -218.5 101t-110 179.5t-29.5 196.5q0 170 87 306.5t271 162.5v251h112v-251q100 -7 196.5 -83t126.5 -227l-136 -26q-19 91 -72 152.5t-115 66.5v-706q150 35 187 215l136 -22 q-62 -278 -323 -316v-283z" unicode="¢"/>
<glyph glyph-name="sterling" d="M1049 306l130 -85q-49 -106 -148.5 -163.5t-205.5 -57.5h-830v150q155 3 219.5 22.5t121 92.5t56.5 178q0 73 -19 206h-218v117h207q-19 107 -19 190q0 199 107 318t265 119q198 0 328 -187l-111 -86q-103 136 -209 136q-82 0 -142 -65.5t-60 -174.5q0 -78 21 -250h293 v-117h-279q6 -85 6 -141q0 -239 -159 -358h318q149 0 216.5 39t111.5 117z" unicode="£"/>
<glyph glyph-name="currency" horiz-adv-x="1365" unicode="¤" d="M1029 741q0 143 -101.5 245t-244.5 102t-244 -102.5t-101 -243.5q0 -144 101.5 -245.5t243.5 -101.5t244 101.5t102 244.5zM104 256l194 196q-102 139 -102 289q0 146 102 290l-198 196l92 91l198 -195q149 103 297 103q141 0 288 -103l196 195l91 -91l-194 -196 q102 -151 102 -291q0 -143 -102 -288l198 -196l-91 -92l-197 197q-141 -103 -295 -103q-138 0 -293 101l-195 -195z"/>
<glyph glyph-name="yen" horiz-adv-x="1202" unicode="¥" d="M843 847h253v-118h-321l-91 -157h412v-117h-412v-455h-166v455h-412v117h412l-90 157h-322v118h254l-301 518h201l362 -627l365 627h157z"/>
<glyph glyph-name="brokenbar" horiz-adv-x="1024" unicode="¦" d="M436 314h153v-655h-153v655zM436 1365h153v-682h-153v682z"/>
<glyph glyph-name="section" d="M490 769q-156 -80 -156 -199q0 -131 217 -192l197 -56q74 36 108 92t34 100q0 52 -45.5 105.5t-132.5 79.5zM134 -72l176 26q91 -192 305 -192q116 0 202 60t86 157q0 138 -209 194l-207 55q-175 47 -243 118t-68 177q0 173 193 295q-164 90 -164 266q0 138 105 223.5 t280 85.5q158 0 268.5 -71.5t146.5 -193.5l-153 -18q-67 168 -267 168q-106 0 -166.5 -50.5t-60.5 -124.5q0 -81 65 -131t179 -83l186 -52q122 -34 185.5 -109.5t63.5 -167.5q0 -146 -163 -277q193 -92 193 -280q0 -154 -129 -262t-332 -108q-353 0 -472 295z" unicode="§"/>
<glyph glyph-name="dieresis" horiz-adv-x="1024" unicode="¨" d="M455 1303q0 -42 -31.5 -72t-73.5 -30t-72.5 30t-30.5 71q0 43 30.5 72.5t69.5 29.5q48 0 78 -30t30 -71zM777 1304q0 -43 -31.5 -73t-74.5 -30t-74.5 30t-31.5 72q0 43 31.5 72.5t73.5 29.5q44 0 75.5 -29.5t31.5 -71.5z"/>
<glyph glyph-name="copyright" horiz-adv-x="1584" unicode="©" d="M989 564l117 -25q-71 -278 -327 -278q-172 0 -264 128t-92 306q0 190 99.5 303.5t264.5 113.5q255 0 319 -270l-121 -22q-52 194 -202 194q-103 0 -163 -87.5t-60 -246.5q0 -144 60.5 -232t161.5 -88q162 0 207 204zM1397 687q0 250 -177.5 427.5t-427.5 177.5 q-249 0 -427 -178t-178 -427q0 -250 177 -427.5t428 -177.5q249 0 427 178t178 427zM1498 687q0 -291 -207.5 -498.5t-498.5 -207.5t-498.5 207.5t-207.5 498.5q0 290 207.5 498t498.5 208t498.5 -208t207.5 -498z"/>
<glyph glyph-name="ordfeminine" horiz-adv-x="715" unicode="ª" d="M493 1065q-54 3 -81 3q-234 0 -234 -132q0 -100 125 -100q83 0 137.5 59t54.5 138q0 13 -2 32zM624 767h-120q-8 38 -11 82q-66 -98 -211 -98q-112 0 -171 55.5t-59 131.5q0 93 85 153.5t285 60.5q21 0 71 -2q0 84 -29 120.5t-120 36.5q-143 0 -164 -109l-112 18 q29 177 289 177q137 0 194 -57t57 -193v-254q0 -67 16 -122z"/>
<glyph glyph-name="guillemotleft" horiz-adv-x="704" unicode="«" d="M517 240l-173 293l173 282h92l-107 -282l107 -293h-92zM254 240l-172 293l172 282h90l-106 -282l106 -293h-90z"/>
<glyph glyph-name="logicalnot" d="M1044 0h-152v408h-735v138h887v-546z" unicode="¬"/>
<glyph glyph-name="uni00AD" horiz-adv-x="512" unicode="­" d="M482 573v-122h-452v122h452z"/>
<glyph glyph-name="registered" horiz-adv-x="1584" unicode="®" d="M608 722h212q83 0 123.5 41.5t40.5 102.5q0 63 -43 95.5t-108 32.5h-225v-272zM1124 277h-134l-157 349h-225v-349h-121v819h346q140 0 209.5 -72t69.5 -160q0 -65 -38 -125t-119 -85zM1397 687q0 250 -177.5 427.5t-427.5 177.5q-249 0 -427 -178t-178 -427 q0 -250 177 -427.5t428 -177.5q249 0 427 178t178 427zM1498 687q0 -291 -207.5 -498.5t-498.5 -207.5t-498.5 207.5t-207.5 498.5q0 290 207.5 498t498.5 208t498.5 -208t207.5 -498z"/>
<glyph glyph-name="uni00AF" horiz-adv-x="1024" unicode="¯" d="M0 1768h1024v-137h-1024v137z"/>
<glyph glyph-name="degree" d="M446 1123q0 -65 45.5 -110t104.5 -45q68 0 114 45.5t46 109.5t-45.5 109.5t-110.5 45.5q-63 0 -108.5 -45.5t-45.5 -109.5zM330 1122q0 111 79.5 191t191.5 80t191.5 -79.5t79.5 -191.5q0 -111 -80 -190.5t-195 -79.5q-108 0 -187.5 79.5t-79.5 190.5z" unicode="°"/>
<glyph glyph-name="plusminus" d="M123 98h956v-138h-956v138zM123 753h403v421h150v-421h403v-138h-403v-421h-150v421h-403v138z" unicode="±"/>
<glyph glyph-name="twosuperior" horiz-adv-x="792" unicode="²" d="M698 643v-97h-617v94q359 255 426.5 334t67.5 156q0 71 -55.5 114.5t-127.5 43.5q-76 0 -134 -49t-65 -138l-112 33q64 248 312 248q135 0 218.5 -73.5t83.5 -172.5q0 -131 -124 -244.5t-326 -248.5h453z"/>
<glyph glyph-name="threesuperior" horiz-adv-x="792" unicode="³" d="M263 926v93h104q190 0 190 134q0 62 -49 98t-123 36q-147 0 -193 -131l-109 29q84 197 312 197q124 0 203.5 -64t79.5 -158q0 -134 -138 -182q74 -16 122.5 -70t48.5 -132q0 -103 -88 -174t-241 -71q-248 0 -330 208l112 35q43 -147 217 -147q109 0 158 44t49 106 q0 67 -58.5 108t-162.5 41h-104z"/>
<glyph glyph-name="acute" horiz-adv-x="1024" unicode="´" d="M836 1356l-414 -189l-43 81l396 228z"/>
<glyph glyph-name="uni00B5" horiz-adv-x="1095" unicode="µ" d="M150 -341v1351h157v-566q0 -111 21 -174t77.5 -110.5t136.5 -47.5q246 0 246 344v554h157v-1010h-143v158q-89 -185 -255 -185q-159 0 -240 158v-472h-157z"/>
<glyph glyph-name="paragraph" d="M652 821v449h-112q-114 0 -172.5 -16t-93.5 -67.5t-35 -143.5q0 -100 54 -161t217 -61h142zM1086 1365v-95h-137v-1611h-100v1611h-98v-1611h-99v1066h-151q-181 0 -259.5 30t-123 100t-44.5 169q0 109 45.5 190t120 116t265.5 35h581z" unicode="¶"/>
<glyph glyph-name="uni00B7" horiz-adv-x="223" unicode="·" d="M223 631v-224h-223v224h223z"/>
<glyph glyph-name="cedilla" horiz-adv-x="1024" unicode="¸" d="M438 0h66l-26 -93q102 0 150 -38t48 -95q0 -56 -44.5 -101t-148.5 -45q-102 0 -176 45l24 64q73 -35 142 -35q48 0 75 21t27 51q0 69 -121 69q-29 0 -69 -5z"/>
<glyph glyph-name="onesuperior" horiz-adv-x="792" unicode="¹" d="M711 635v-89h-550v89h225v599q-110 -108 -232 -170v117q167 83 262 201h86v-747h209z"/>
<glyph glyph-name="ordmasculine" horiz-adv-x="704" unicode="º" d="M351 841q71 0 118 57t47 176t-49 174t-117 55q-69 0 -116 -55.5t-47 -173.5t45 -175.5t119 -57.5zM343 751q-125 0 -205 87.5t-80 235.5q0 145 85 232t211 87q128 0 209.5 -87t81.5 -233q0 -142 -84 -232t-218 -90z"/>
<glyph glyph-name="guillemotright" horiz-adv-x="704" unicode="»" d="M187 815l174 -292l-174 -283h-91l107 283l-107 292h91zM450 815l172 -292l-172 -283h-89l105 283l-105 292h89z"/>
<glyph glyph-name="onequarter" horiz-adv-x="1802" unicode="¼" d="M1468 285v436q-16 -29 -32 -52l-256 -384h288zM1583 0h-115v191h-418v77l391 568h142v-551h138v-94h-138v-191zM537 0h-126l827 1365h124zM659 635v-89h-550v89h225v599q-110 -108 -232 -170v117q167 83 262 201h86v-747h209z"/>
<glyph glyph-name="onehalf" horiz-adv-x="1802" unicode="½" d="M1718 97v-97h-616v94q360 257 427 335t67 155q0 71 -55.5 114t-127.5 43q-76 0 -134 -48t-65 -138l-112 32q63 249 312 249q135 0 218.5 -73.5t83.5 -173.5q0 -96 -81.5 -198.5t-368.5 -293.5h452zM523 0h-126l827 1365h124zM645 635v-89h-550v89h225v599 q-110 -108 -232 -170v117q167 83 262 201h86v-747h209z"/>
<glyph glyph-name="threequarters" horiz-adv-x="1802" unicode="¾" d="M1496 285v436q-16 -29 -32 -52l-256 -384h288zM1612 0h-116v191h-418v77l391 568h143v-551h138v-94h-138v-191zM606 0h-126l827 1365h125zM252 926v93h104q190 0 190 134q0 62 -49 98t-123 36q-147 0 -193 -131l-109 29q84 197 312 197q124 0 203.5 -64t79.5 -158 q0 -134 -138 -182q74 -16 122.5 -70t48.5 -132q0 -103 -88 -174t-241 -71q-248 0 -330 208l112 35q43 -147 217 -147q109 0 158 44t49 106q0 67 -58.5 108t-162.5 41h-104z"/>
<glyph glyph-name="questiondown" horiz-adv-x="1035" unicode="¿" d="M499 684h143q0 -156 -3.5 -194t-22 -77.5t-40.5 -60.5t-106 -68q-91 -51 -125.5 -79.5t-59.5 -78.5t-25 -111q0 -114 82.5 -179t193.5 -65q254 0 310 296l149 -33q-75 -403 -468 -403q-204 0 -324.5 110.5t-120.5 279.5q0 223 255 356q112 59 137.5 92.5t25.5 103.5z M465 814v196h202v-196h-202z"/>
<glyph glyph-name="Agrave" horiz-adv-x="1097" unicode="À" d="M741 527l-210 656l-212 -656h422zM1090 0h-175l-138 399h-505l-122 -399h-143l443 1365h195zM221 1677l62 120l395 -228l-42 -81z"/>
<glyph glyph-name="Aacute" horiz-adv-x="1097" unicode="Á" d="M741 527l-210 656l-212 -656h422zM1090 0h-175l-138 399h-505l-122 -399h-143l443 1365h195zM873 1677l-414 -189l-43 81l396 228z"/>
<glyph glyph-name="Acircumflex" horiz-adv-x="1097" unicode="Â" d="M741 527l-210 656l-212 -656h422zM1090 0h-175l-138 399h-505l-122 -399h-143l443 1365h195zM880 1515l-141 -20l-191 134l-184 -134l-147 20l334 260z"/>
<glyph glyph-name="Atilde" horiz-adv-x="1097" unicode="Ã" d="M741 527l-210 656l-212 -656h422zM1090 0h-175l-138 399h-505l-122 -399h-143l443 1365h195zM814 1701l77 -72q-106 -101 -202 -101q-49 0 -129 35q-87 38 -134 38q-81 0 -135 -66l-84 58q88 128 224 128q46 0 128 -34q89 -37 128 -37q65 0 127 51z"/>
<glyph glyph-name="Adieresis" horiz-adv-x="1097" unicode="Ä" d="M741 527l-210 656l-212 -656h422zM1090 0h-175l-138 399h-505l-122 -399h-143l443 1365h195zM492 1624q0 -42 -31.5 -72t-73.5 -30t-72.5 30t-30.5 71q0 43 30.5 72.5t69.5 29.5q48 0 78 -30t30 -71zM814 1625q0 -43 -31.5 -73t-74.5 -30t-74.5 30t-31.5 72 q0 43 31.5 72.5t73.5 29.5q44 0 75.5 -29.5t31.5 -71.5z"/>
<glyph glyph-name="Aring" horiz-adv-x="1097" unicode="Å" d="M741 527l-210 656l-212 -656h422zM1090 0h-175l-138 399h-505l-122 -399h-143l443 1365h195zM640 1634q0 37 -26 64t-63 27q-38 0 -65.5 -26.5t-27.5 -63.5q0 -38 27.5 -65t64.5 -27t63.5 26.5t26.5 64.5zM729 1635q0 -74 -52.5 -127t-125.5 -53q-75 0 -128.5 53 t-53.5 128q0 73 53 126.5t132 53.5q70 0 122.5 -53.5t52.5 -127.5z"/>
<glyph glyph-name="AE" horiz-adv-x="1856" unicode="Æ" d="M849 554v662l-385 -662h385zM1788 150v-150h-939v422h-459l-252 -422h-165l813 1365h976v-150h-742v-434h600v-139h-600v-492h768z"/>
<glyph glyph-name="Ccedilla" horiz-adv-x="1186" unicode="Ç" d="M648 -27l-25 -80q24 2 37 2q68 0 124.5 -39.5t56.5 -111.5q0 -68 -57 -111.5t-160 -43.5q-105 0 -193 50l26 72q83 -40 154 -40q115 0 115 75q0 80 -129 80q-28 0 -81 -5l52 156q-224 26 -353.5 232t-129.5 487q0 315 154 506t413 191q384 0 493 -439l-161 -32 q-88 326 -333 326q-181 0 -280.5 -151.5t-99.5 -425.5q0 -251 102 -402.5t270 -151.5q261 0 346 342l156 -35q-111 -451 -497 -451z"/>
<glyph glyph-name="Egrave" horiz-adv-x="1122" unicode="È" d="M1054 150v-150h-883v1365h864v-150h-693v-434h550v-139h-550v-492h712zM323 1677l62 120l395 -228l-42 -81z"/>
<glyph glyph-name="Eacute" horiz-adv-x="1122" unicode="É" d="M1054 150v-150h-883v1365h864v-150h-693v-434h550v-139h-550v-492h712zM909 1677l-414 -189l-43 81l396 228z"/>
<glyph glyph-name="Ecircumflex" horiz-adv-x="1122" unicode="Ê" d="M1054 150v-150h-883v1365h864v-150h-693v-434h550v-139h-550v-492h712zM937 1515l-141 -20l-191 134l-184 -134l-147 20l334 260z"/>
<glyph glyph-name="Edieresis" horiz-adv-x="1122" unicode="Ë" d="M1054 150v-150h-883v1365h864v-150h-693v-434h550v-139h-550v-492h712zM549 1624q0 -42 -31.5 -72t-73.5 -30t-72.5 30t-30.5 71q0 43 30.5 72.5t69.5 29.5q48 0 78 -30t30 -71zM871 1625q0 -43 -31.5 -73t-74.5 -30t-74.5 30t-31.5 72q0 43 31.5 72.5t73.5 29.5 q44 0 75.5 -29.5t31.5 -71.5z"/>
<glyph glyph-name="Igrave" horiz-adv-x="512" unicode="Ì" d="M362 0h-171v1365h171v-1365zM-27 1677l62 120l395 -228l-42 -81z"/>
<glyph glyph-name="Iacute" horiz-adv-x="512" unicode="Í" d="M362 0h-171v1365h171v-1365zM580 1677l-414 -189l-43 81l396 228z"/>
<glyph glyph-name="Icircumflex" horiz-adv-x="512" unicode="Î" d="M342 0h-171v1365h171v-1365zM588 1515l-141 -20l-191 134l-184 -134l-147 20l334 260z"/>
<glyph glyph-name="Idieresis" horiz-adv-x="512" unicode="Ï" d="M342 0h-171v1365h171v-1365zM221 1624q0 -42 -31.5 -72t-73.5 -30t-72.5 30t-30.5 71q0 43 30.5 72.5t69.5 29.5q48 0 78 -30t30 -71zM543 1625q0 -43 -31.5 -73t-74.5 -30t-74.5 30t-31.5 72q0 43 31.5 72.5t73.5 29.5q44 0 75.5 -29.5t31.5 -71.5z"/>
<glyph glyph-name="Eth" horiz-adv-x="1325" unicode="Ð" d="M342 792h326v-137h-326v-510h276q220 0 334 152.5t114 400.5q0 200 -109 362t-339 162h-276v-430zM35 655v137h137v573h456q289 0 450 -197t161 -481q0 -289 -156.5 -488t-398.5 -199h-512v655h-137z"/>
<glyph glyph-name="Ntilde" horiz-adv-x="1346" unicode="Ñ" d="M1176 0h-166l-706 1190l2 -90q3 -51 3 -86v-1014h-138v1365h214l660 -1113l-2 95q-2 56 -2 99v919h135v-1365zM945 1701l77 -72q-106 -101 -202 -101q-49 0 -129 35q-87 38 -134 38q-81 0 -135 -66l-84 58q88 128 224 128q46 0 128 -34q89 -37 128 -37q65 0 127 51z"/>
<glyph glyph-name="Ograve" horiz-adv-x="1292" unicode="Ò" d="M646 112q179 0 280 163t101 420q0 264 -104.5 411t-277.5 147q-175 0 -278 -159t-103 -416q0 -251 104 -408.5t278 -157.5zM642 -27q-263 0 -410 204.5t-147 501.5q0 310 154 512t408 202q253 0 406 -198.5t153 -500.5q0 -290 -148.5 -505.5t-415.5 -215.5zM348 1677 l62 120l395 -228l-42 -81z"/>
<glyph glyph-name="Oacute" horiz-adv-x="1292" unicode="Ó" d="M646 112q179 0 280 163t101 420q0 264 -104.5 411t-277.5 147q-175 0 -278 -159t-103 -416q0 -251 104 -408.5t278 -157.5zM642 -27q-263 0 -410 204.5t-147 501.5q0 310 154 512t408 202q253 0 406 -198.5t153 -500.5q0 -290 -148.5 -505.5t-415.5 -215.5zM956 1677 l-414 -189l-43 81l396 228z"/>
<glyph glyph-name="Ocircumflex" horiz-adv-x="1292" unicode="Ô" d="M646 112q179 0 280 163t101 420q0 264 -104.5 411t-277.5 147q-175 0 -278 -159t-103 -416q0 -251 104 -408.5t278 -157.5zM642 -27q-263 0 -410 204.5t-147 501.5q0 310 154 512t408 202q253 0 406 -198.5t153 -500.5q0 -290 -148.5 -505.5t-415.5 -215.5zM977 1515 l-141 -20l-191 134l-184 -134l-147 20l334 260z"/>
<glyph glyph-name="Otilde" horiz-adv-x="1292" unicode="Õ" d="M646 112q179 0 280 163t101 420q0 264 -104.5 411t-277.5 147q-175 0 -278 -159t-103 -416q0 -251 104 -408.5t278 -157.5zM642 -27q-263 0 -410 204.5t-147 501.5q0 310 154 512t408 202q253 0 406 -198.5t153 -500.5q0 -290 -148.5 -505.5t-415.5 -215.5zM924 1701 l77 -72q-106 -101 -202 -101q-49 0 -129 35q-87 38 -134 38q-81 0 -135 -66l-84 58q88 128 224 128q46 0 128 -34q89 -37 128 -37q65 0 127 51z"/>
<glyph glyph-name="Odieresis" horiz-adv-x="1292" unicode="Ö" d="M646 112q179 0 280 163t101 420q0 264 -104.5 411t-277.5 147q-175 0 -278 -159t-103 -416q0 -251 104 -408.5t278 -157.5zM642 -27q-263 0 -410 204.5t-147 501.5q0 310 154 512t408 202q253 0 406 -198.5t153 -500.5q0 -290 -148.5 -505.5t-415.5 -215.5zM589 1624 q0 -42 -31.5 -72t-73.5 -30t-72.5 30t-30.5 71q0 43 30.5 72.5t69.5 29.5q48 0 78 -30t30 -71zM911 1625q0 -43 -31.5 -73t-74.5 -30t-74.5 30t-31.5 72q0 43 31.5 72.5t73.5 29.5q44 0 75.5 -29.5t31.5 -71.5z"/>
<glyph glyph-name="multiply" d="M909 277l-308 309l-309 -309l-98 98l309 309l-309 309l98 98l309 -309l308 309l98 -98l-308 -309l308 -309z" unicode="×"/>
<glyph glyph-name="Oslash" horiz-adv-x="1292" unicode="Ø" d="M404 224q92 -112 241 -112q192 0 287 171t95 409q0 223 -73 363zM876 1162q-91 91 -234 91q-171 0 -274.5 -156t-103.5 -412q0 -213 68 -350zM63 -49l157 241q-135 200 -135 493q0 297 151.5 502.5t412.5 205.5q182 0 326 -114l97 140h146l-158 -233q146 -197 146 -494 q0 -284 -146.5 -501.5t-421.5 -217.5q-195 0 -336 125l-95 -147h-144z"/>
<glyph glyph-name="Ugrave" horiz-adv-x="1241" unicode="Ù" d="M949 1365h142v-891q0 -268 -131.5 -384.5t-344.5 -116.5q-237 0 -351 120t-114 381v891h171v-891q0 -159 37 -224t112 -96t157 -31q158 0 240 83t82 268v891zM317 1677l62 120l395 -228l-42 -81z"/>
<glyph glyph-name="Uacute" horiz-adv-x="1241" unicode="Ú" d="M949 1365h142v-891q0 -268 -131.5 -384.5t-344.5 -116.5q-237 0 -351 120t-114 381v891h171v-891q0 -159 37 -224t112 -96t157 -31q158 0 240 83t82 268v891zM951 1677l-414 -189l-43 81l396 228z"/>
<glyph glyph-name="Ucircumflex" horiz-adv-x="1241" unicode="Û" d="M949 1365h142v-891q0 -268 -131.5 -384.5t-344.5 -116.5q-237 0 -351 120t-114 381v891h171v-891q0 -159 37 -224t112 -96t157 -31q158 0 240 83t82 268v891zM959 1515l-141 -20l-191 134l-184 -134l-147 20l334 260z"/>
<glyph glyph-name="Udieresis" horiz-adv-x="1241" unicode="Ü" d="M949 1365h142v-891q0 -268 -131.5 -384.5t-344.5 -116.5q-237 0 -351 120t-114 381v891h171v-891q0 -159 37 -224t112 -96t157 -31q158 0 240 83t82 268v891zM570 1624q0 -42 -31.5 -72t-73.5 -30t-72.5 30t-30.5 71q0 43 30.5 72.5t69.5 29.5q48 0 78 -30t30 -71z M892 1625q0 -43 -31.5 -73t-74.5 -30t-74.5 30t-31.5 72q0 43 31.5 72.5t73.5 29.5q44 0 75.5 -29.5t31.5 -71.5z"/>
<glyph glyph-name="Yacute" horiz-adv-x="1045" unicode="Ý" d="M1065 1365l-457 -791v-574h-171v574l-457 791h201l363 -628l365 628h156zM853 1677l-414 -189l-43 81l396 228z"/>
<glyph glyph-name="Thorn" horiz-adv-x="1159" unicode="Þ" d="M342 498h314q121 0 195 72.5t74 190.5q0 110 -69.5 186.5t-187.5 76.5h-326v-526zM342 0h-171v1365h171v-198h313q227 0 335 -123.5t108 -285.5q0 -171 -117 -286.5t-308 -115.5h-331v-356z"/>
<glyph glyph-name="germandbls" horiz-adv-x="1162" unicode="ß" d="M158 -87v878h-107v126h107q13 273 136 394t305 121q150 0 263 -82t113 -218q0 -130 -115 -205.5t-273 -75.5l-24 1q-30 0 -30 -17q0 -16 25 -31.5t119 -50.5q271 -99 351 -192t80 -217q0 -160 -119 -273t-309 -113q-97 0 -226 33l44 114q102 -21 166 -21q130 0 201 78 t71 150q0 142 -147 208l-249 110q-157 69 -157 167q0 30 16.5 72t31 52.5t61.5 15.5q312 34 312 207q0 70 -58 114.5t-149 44.5q-136 0 -209.5 -93t-73.5 -239v-1058h-156z"/>
<glyph glyph-name="agrave" horiz-adv-x="1083" unicode="à" d="M774 505q-96 6 -146 6q-186 0 -289 -61t-103 -178q0 -74 55.5 -126t160.5 -52q142 0 233.5 103t91.5 242q0 28 -3 66zM948 0h-156q-9 48 -18 182q-104 -209 -354 -209q-170 0 -261 90t-91 216q0 153 130 251.5t442 98.5q42 0 134 -4q0 120 -18.5 173.5t-78.5 85.5 t-158 32q-239 0 -278 -182l-145 25q53 279 446 279q209 0 296.5 -92.5t87.5 -320.5v-429q0 -107 22 -196zM252 1356l62 120l395 -228l-42 -81z"/>
<glyph glyph-name="aacute" horiz-adv-x="1083" unicode="á" d="M774 505q-96 6 -146 6q-186 0 -289 -61t-103 -178q0 -74 55.5 -126t160.5 -52q142 0 233.5 103t91.5 242q0 28 -3 66zM948 0h-156q-9 48 -18 182q-104 -209 -354 -209q-170 0 -261 90t-91 216q0 153 130 251.5t442 98.5q42 0 134 -4q0 120 -18.5 173.5t-78.5 85.5 t-158 32q-239 0 -278 -182l-145 25q53 279 446 279q209 0 296.5 -92.5t87.5 -320.5v-429q0 -107 22 -196zM832 1356l-414 -189l-43 81l396 228z"/>
<glyph glyph-name="acircumflex" horiz-adv-x="1083" unicode="â" d="M774 505q-96 6 -146 6q-186 0 -289 -61t-103 -178q0 -74 55.5 -126t160.5 -52q142 0 233.5 103t91.5 242q0 28 -3 66zM948 0h-156q-9 48 -18 182q-104 -209 -354 -209q-170 0 -261 90t-91 216q0 153 130 251.5t442 98.5q42 0 134 -4q0 120 -18.5 173.5t-78.5 85.5 t-158 32q-239 0 -278 -182l-145 25q53 279 446 279q209 0 296.5 -92.5t87.5 -320.5v-429q0 -107 22 -196zM867 1194l-141 -20l-191 134l-184 -134l-147 20l334 260z"/>
<glyph glyph-name="atilde" horiz-adv-x="1083" unicode="ã" d="M774 505q-96 6 -146 6q-186 0 -289 -61t-103 -178q0 -74 55.5 -126t160.5 -52q142 0 233.5 103t91.5 242q0 28 -3 66zM948 0h-156q-9 48 -18 182q-104 -209 -354 -209q-170 0 -261 90t-91 216q0 153 130 251.5t442 98.5q42 0 134 -4q0 120 -18.5 173.5t-78.5 85.5 t-158 32q-239 0 -278 -182l-145 25q53 279 446 279q209 0 296.5 -92.5t87.5 -320.5v-429q0 -107 22 -196zM807 1380l77 -72q-106 -101 -202 -101q-49 0 -129 35q-87 38 -134 38q-81 0 -135 -66l-84 58q88 128 224 128q46 0 128 -34q89 -37 128 -37q65 0 127 51z"/>
<glyph glyph-name="adieresis" horiz-adv-x="1083" unicode="ä" d="M774 505q-96 6 -146 6q-186 0 -289 -61t-103 -178q0 -74 55.5 -126t160.5 -52q142 0 233.5 103t91.5 242q0 28 -3 66zM948 0h-156q-9 48 -18 182q-104 -209 -354 -209q-170 0 -261 90t-91 216q0 153 130 251.5t442 98.5q42 0 134 -4q0 120 -18.5 173.5t-78.5 85.5 t-158 32q-239 0 -278 -182l-145 25q53 279 446 279q209 0 296.5 -92.5t87.5 -320.5v-429q0 -107 22 -196zM479 1303q0 -42 -31.5 -72t-73.5 -30t-72.5 30t-30.5 71q0 43 30.5 72.5t69.5 29.5q48 0 78 -30t30 -71zM801 1304q0 -43 -31.5 -73t-74.5 -30t-74.5 30t-31.5 72 q0 43 31.5 72.5t73.5 29.5q44 0 75.5 -29.5t31.5 -71.5z"/>
<glyph glyph-name="aring" horiz-adv-x="1083" unicode="å" d="M774 505q-96 6 -146 6q-186 0 -289 -61t-103 -178q0 -74 55.5 -126t160.5 -52q142 0 233.5 103t91.5 242q0 28 -3 66zM948 0h-156q-9 48 -18 182q-104 -209 -354 -209q-170 0 -261 90t-91 216q0 153 130 251.5t442 98.5q42 0 134 -4q0 120 -18.5 173.5t-78.5 85.5 t-158 32q-239 0 -278 -182l-145 25q53 279 446 279q209 0 296.5 -92.5t87.5 -320.5v-429q0 -107 22 -196zM626 1326q0 38 -26 65t-59 27q-43 0 -69.5 -27t-26.5 -63q0 -38 27 -65t65 -27q37 0 63 26.5t26 63.5zM709 1326q0 -71 -50.5 -121.5t-121.5 -50.5t-123 51t-52 122 q0 70 51.5 122t127.5 52q67 0 117.5 -51.5t50.5 -123.5z"/>
<glyph glyph-name="ae" horiz-adv-x="1722" unicode="æ" d="M756 503q-56 9 -128 9q-196 0 -294.5 -64t-98.5 -165q0 -76 54 -128.5t142 -52.5q127 0 226.5 92.5t99.5 253.5q0 18 -1 55zM1472 608q-4 134 -74.5 220.5t-193.5 86.5q-121 0 -200 -87t-86 -220h554zM1484 297l142 -27q-40 -132 -155.5 -214.5t-267.5 -82.5 q-277 0 -409 256q-106 -256 -365 -256q-183 0 -274 85.5t-91 214.5q0 159 132.5 256t425.5 97q63 0 139 -7q2 44 2 70q0 226 -256 226q-114 0 -178.5 -51.5t-77.5 -120.5l-149 26q31 136 150 202.5t274 66.5q244 0 351 -147q127 147 329 147q182 0 306 -131t131 -416h-731 q0 -217 91.5 -303t209.5 -86q189 0 271 195z"/>
<glyph glyph-name="ccedilla" horiz-adv-x="954" unicode="ç" d="M506 -27l-19 -66q103 0 150.5 -38t47.5 -95t-45 -101.5t-145 -44.5q-104 0 -179 45l24 64q73 -35 144 -35q44 0 72 19.5t28 50.5q0 71 -116 71q-25 0 -74 -5l46 139q-177 25 -269.5 175.5t-92.5 350.5q0 230 115.5 382.5t314.5 152.5q165 0 264.5 -98.5t123.5 -254.5 l-142 -27q-40 250 -242 250q-130 0 -200 -110.5t-70 -286.5q0 -194 69.5 -301.5t195.5 -107.5q195 0 247 252l142 -25q-29 -164 -131 -260t-259 -96z"/>
<glyph glyph-name="egrave" horiz-adv-x="1066" unicode="è" d="M815 608q-2 85 -28 151t-88 112.5t-149 46.5q-117 0 -198.5 -84t-91.5 -226h555zM824 301l146 -30q-40 -129 -156 -213.5t-273 -84.5q-207 0 -335 145.5t-128 381.5q0 241 133 389.5t334 148.5q198 0 318.5 -137t123.5 -410h-734q0 -229 96 -309t203 -80q193 0 272 199z M270 1356l62 120l395 -228l-42 -81z"/>
<glyph glyph-name="eacute" horiz-adv-x="1066" unicode="é" d="M815 608q-2 85 -28 151t-88 112.5t-149 46.5q-117 0 -198.5 -84t-91.5 -226h555zM824 301l146 -30q-40 -129 -156 -213.5t-273 -84.5q-207 0 -335 145.5t-128 381.5q0 241 133 389.5t334 148.5q198 0 318.5 -137t123.5 -410h-734q0 -229 96 -309t203 -80q193 0 272 199z M850 1356l-414 -189l-43 81l396 228z"/>
<glyph glyph-name="ecircumflex" horiz-adv-x="1066" unicode="ê" d="M815 608q-2 85 -28 151t-88 112.5t-149 46.5q-117 0 -198.5 -84t-91.5 -226h555zM824 301l146 -30q-40 -129 -156 -213.5t-273 -84.5q-207 0 -335 145.5t-128 381.5q0 241 133 389.5t334 148.5q198 0 318.5 -137t123.5 -410h-734q0 -229 96 -309t203 -80q193 0 272 199z M878 1194l-141 -20l-191 134l-184 -134l-147 20l334 260z"/>
<glyph glyph-name="edieresis" horiz-adv-x="1066" unicode="ë" d="M815 608q-2 85 -28 151t-88 112.5t-149 46.5q-117 0 -198.5 -84t-91.5 -226h555zM824 301l146 -30q-40 -129 -156 -213.5t-273 -84.5q-207 0 -335 145.5t-128 381.5q0 241 133 389.5t334 148.5q198 0 318.5 -137t123.5 -410h-734q0 -229 96 -309t203 -80q193 0 272 199z M499 1303q0 -42 -31.5 -72t-73.5 -30t-72.5 30t-30.5 71q0 43 30.5 72.5t69.5 29.5q48 0 78 -30t30 -71zM821 1304q0 -43 -31.5 -73t-74.5 -30t-74.5 30t-31.5 72q0 43 31.5 72.5t73.5 29.5q44 0 75.5 -29.5t31.5 -71.5z"/>
<glyph glyph-name="igrave" horiz-adv-x="470" unicode="ì" d="M313 1010v-1010h-157v1010h157zM-112 1356l62 120l395 -228l-42 -81z"/>
<glyph glyph-name="iacute" horiz-adv-x="470" unicode="í" d="M313 1010v-1010h-157v1010h157zM586 1356l-414 -189l-43 81l396 228z"/>
<glyph glyph-name="icircumflex" horiz-adv-x="470" unicode="î" d="M313 1010v-1010h-157v1010h157zM566 1194l-141 -20l-191 134l-184 -134l-147 20l334 260z"/>
<glyph glyph-name="idieresis" horiz-adv-x="470" unicode="ï" d="M314 1010v-1010h-157v1010h157zM200 1303q0 -42 -31.5 -72t-73.5 -30t-72.5 30t-30.5 71q0 43 30.5 72.5t69.5 29.5q48 0 78 -30t30 -71zM522 1304q0 -43 -31.5 -73t-74.5 -30t-74.5 30t-31.5 72q0 43 31.5 72.5t73.5 29.5q44 0 75.5 -29.5t31.5 -71.5z"/>
<glyph glyph-name="eth" horiz-adv-x="1061" unicode="ð" d="M528 881q-132 0 -205 -109t-73 -272q0 -199 79 -299.5t204 -100.5q121 0 199 101.5t78 286.5q0 175 -78 284t-204 109zM345 1164l146 88q-57 44 -164 94l77 82q110 -35 207 -106l176 99l70 -87l-153 -86q278 -282 278 -707q0 -281 -130.5 -424.5t-325.5 -143.5 q-221 0 -334.5 157.5t-113.5 362.5q0 213 123.5 365t301.5 152q144 0 245 -114q-48 159 -169 281l-175 -101z"/>
<glyph glyph-name="ntilde" horiz-adv-x="1110" unicode="ñ" d="M953 0h-147v649q0 140 -61 197t-148 57q-120 0 -201.5 -96t-81.5 -253v-554h-157v1010h146v-186q123 214 319 214q113 0 192.5 -58.5t109 -131.5t29.5 -264v-584zM827 1380l77 -72q-106 -101 -202 -101q-49 0 -129 35q-87 38 -134 38q-81 0 -135 -66l-84 58 q88 128 224 128q46 0 128 -34q89 -37 128 -37q65 0 127 51z"/>
<glyph glyph-name="ograve" horiz-adv-x="1064" unicode="ò" d="M531 102q120 0 201 99t81 308q0 210 -85 304.5t-199 94.5q-117 0 -198 -95.5t-81 -302.5q0 -219 81 -313.5t200 -94.5zM519 -27q-208 0 -324.5 154t-116.5 382q0 241 131 385t326 144q209 0 329.5 -151.5t120.5 -378.5q0 -236 -130 -385.5t-336 -149.5zM248 1356l62 120 l395 -228l-42 -81z"/>
<glyph glyph-name="oacute" horiz-adv-x="1064" unicode="ó" d="M531 102q120 0 201 99t81 308q0 210 -85 304.5t-199 94.5q-117 0 -198 -95.5t-81 -302.5q0 -219 81 -313.5t200 -94.5zM519 -27q-208 0 -324.5 154t-116.5 382q0 241 131 385t326 144q209 0 329.5 -151.5t120.5 -378.5q0 -236 -130 -385.5t-336 -149.5zM828 1356 l-414 -189l-43 81l396 228z"/>
<glyph glyph-name="ocircumflex" horiz-adv-x="1064" unicode="ô" d="M531 102q120 0 201 99t81 308q0 210 -85 304.5t-199 94.5q-117 0 -198 -95.5t-81 -302.5q0 -219 81 -313.5t200 -94.5zM519 -27q-208 0 -324.5 154t-116.5 382q0 241 131 385t326 144q209 0 329.5 -151.5t120.5 -378.5q0 -236 -130 -385.5t-336 -149.5zM863 1194 l-141 -20l-191 134l-184 -134l-147 20l334 260z"/>
<glyph glyph-name="otilde" horiz-adv-x="1064" unicode="õ" d="M531 102q120 0 201 99t81 308q0 210 -85 304.5t-199 94.5q-117 0 -198 -95.5t-81 -302.5q0 -219 81 -313.5t200 -94.5zM519 -27q-208 0 -324.5 154t-116.5 382q0 241 131 385t326 144q209 0 329.5 -151.5t120.5 -378.5q0 -236 -130 -385.5t-336 -149.5zM810 1380l77 -72 q-106 -101 -202 -101q-49 0 -129 35q-87 38 -134 38q-81 0 -135 -66l-84 58q88 128 224 128q46 0 128 -34q89 -37 128 -37q65 0 127 51z"/>
<glyph glyph-name="odieresis" horiz-adv-x="1064" unicode="ö" d="M531 102q120 0 201 99t81 308q0 210 -85 304.5t-199 94.5q-117 0 -198 -95.5t-81 -302.5q0 -219 81 -313.5t200 -94.5zM519 -27q-208 0 -324.5 154t-116.5 382q0 241 131 385t326 144q209 0 329.5 -151.5t120.5 -378.5q0 -236 -130 -385.5t-336 -149.5zM474 1303 q0 -42 -31.5 -72t-73.5 -30t-72.5 30t-30.5 71q0 43 30.5 72.5t69.5 29.5q48 0 78 -30t30 -71zM796 1304q0 -43 -31.5 -73t-74.5 -30t-74.5 30t-31.5 72q0 43 31.5 72.5t73.5 29.5q44 0 75.5 -29.5t31.5 -71.5z"/>
<glyph glyph-name="divide" d="M696 388q0 -40 -28.5 -68t-67.5 -28q-40 0 -68 28t-28 68t28 68.5t68 28.5t68 -28.5t28 -68.5zM123 753h956v-138h-956v138zM696 992q0 -40 -28.5 -68t-67.5 -28t-67.5 28t-28.5 68t28.5 68t67.5 28q40 0 68 -28t28 -68z" unicode="÷"/>
<glyph glyph-name="oslash" horiz-adv-x="1064" unicode="ø" d="M773 743l-425 -565q79 -76 184 -76q119 0 200 99t81 308q0 146 -40 234zM286 279l419 559q-78 70 -176 70q-116 0 -197.5 -95t-81.5 -305q0 -135 36 -229zM184 142q-106 148 -106 368q0 239 131 383.5t325 144.5q149 0 259 -82l90 120h140l-150 -200q112 -149 112 -368 q0 -236 -129.5 -385.5t-336.5 -149.5q-158 0 -260 87l-87 -115h-136z"/>
<glyph glyph-name="ugrave" horiz-adv-x="1109" unicode="ù" d="M952 0h-141v193q-108 -220 -322 -220q-155 0 -243.5 102t-88.5 290v645h157v-645q0 -150 62.5 -206.5t137.5 -56.5q76 0 137.5 43t102.5 122.5t41 173.5v569h157v-1010zM244 1356l62 120l395 -228l-42 -81z"/>
<glyph glyph-name="uacute" horiz-adv-x="1109" unicode="ú" d="M952 0h-141v193q-108 -220 -322 -220q-155 0 -243.5 102t-88.5 290v645h157v-645q0 -150 62.5 -206.5t137.5 -56.5q76 0 137.5 43t102.5 122.5t41 173.5v569h157v-1010zM871 1356l-414 -189l-43 81l396 228z"/>
<glyph glyph-name="ucircumflex" horiz-adv-x="1109" unicode="û" d="M952 0h-141v193q-108 -220 -322 -220q-155 0 -243.5 102t-88.5 290v645h157v-645q0 -150 62.5 -206.5t137.5 -56.5q76 0 137.5 43t102.5 122.5t41 173.5v569h157v-1010zM886 1194l-141 -20l-191 134l-184 -134l-147 20l334 260z"/>
<glyph glyph-name="udieresis" horiz-adv-x="1109" unicode="ü" d="M952 0h-141v193q-108 -220 -322 -220q-155 0 -243.5 102t-88.5 290v645h157v-645q0 -150 62.5 -206.5t137.5 -56.5q76 0 137.5 43t102.5 122.5t41 173.5v569h157v-1010zM497 1303q0 -42 -31.5 -72t-73.5 -30t-72.5 30t-30.5 71q0 43 30.5 72.5t69.5 29.5q48 0 78 -30 t30 -71zM819 1304q0 -43 -31.5 -73t-74.5 -30t-74.5 30t-31.5 72q0 43 31.5 72.5t73.5 29.5q44 0 75.5 -29.5t31.5 -71.5z"/>
<glyph glyph-name="yacute" horiz-adv-x="850" unicode="ý" d="M850 1011l-405 -1128q-88 -244 -281 -244q-61 0 -135 21v123q61 -14 105 -14q75 0 125.5 43t100.5 208l-349 991h160l270 -759l277 759h132zM768 1356l-414 -189l-43 81l396 228z"/>
<glyph glyph-name="thorn" horiz-adv-x="1094" unicode="þ" d="M314 651v-284q15 -115 97 -190t171 -75q103 0 182.5 90t79.5 311q0 191 -72 294.5t-191 103.5q-94 0 -168.5 -73t-98.5 -177zM314 -341h-157v1706h157v-531q105 204 306 204q174 0 285 -148t111 -380q0 -247 -113 -392t-290 -145q-190 0 -299 181v-495z"/>
<glyph glyph-name="dotlessi" horiz-adv-x="470" unicode="ı" d="M313 1010v-1010h-157v1010h157z"/>
<glyph glyph-name="OE" horiz-adv-x="1972" unicode="Œ" d="M1038 995q-25 119 -125.5 188.5t-229.5 69.5q-197 0 -308 -159.5t-111 -411.5q0 -247 109.5 -408.5t304.5 -161.5q119 0 220.5 65.5t139.5 219.5v598zM1904 150v-150h-866v143q-133 -170 -363 -170q-264 0 -427 201.5t-163 503.5t162 508.5t435 206.5q220 0 356 -167v139 h866v-150h-685v-434h551v-139h-551v-492h685z"/>
<glyph glyph-name="oe" horiz-adv-x="1747" unicode="œ" d="M1501 608q-1 122 -71.5 209t-191.5 87q-104 0 -183 -74.5t-91 -221.5h537zM537 98q126 0 206 99t80 310q0 200 -76.5 298.5t-206.5 98.5q-286 0 -286 -424q0 -193 80.5 -287.5t202.5 -94.5zM1512 304l141 -28q-50 -153 -165 -228t-244 -75q-216 0 -352 175 q-147 -175 -358 -175q-198 0 -327 144.5t-129 385.5q0 244 135 389.5t330 145.5q205 0 349 -173q145 173 347 173q190 0 308 -139.5t122 -407.5h-710q0 -120 24.5 -198t99.5 -136t169 -58q180 0 260 205z"/>
<glyph glyph-name="Scaron" horiz-adv-x="1166" unicode="Š" d="M21 363l154 35q93 -279 403 -279q162 0 244 68.5t82 183.5q0 87 -62.5 140t-144.5 73l-273 68q-106 27 -173.5 65.5t-114.5 118.5t-47 183q0 171 129 272.5t331 101.5q372 0 489 -337l-155 -46q-27 120 -127 181.5t-213 61.5q-112 0 -199.5 -59t-87.5 -167 q0 -151 222 -204l255 -61q350 -84 350 -377q0 -177 -131.5 -294.5t-370.5 -117.5q-424 0 -560 390zM227 1741l141 20l191 -133l184 133l147 -20l-334 -259z"/>
<glyph glyph-name="scaron" horiz-adv-x="950" unicode="š" d="M21 262l150 31q50 -191 316 -191q98 0 166 44t68 124q0 119 -173 151l-213 40q-125 24 -199 94t-74 185q0 127 101 212.5t272 85.5q329 0 406 -257l-144 -31q-62 158 -255 158q-96 0 -157.5 -39.5t-61.5 -110.5q0 -112 157 -141l197 -35q309 -56 309 -299 q0 -139 -115 -224.5t-306 -85.5q-359 0 -444 289zM119 1420l141 20l191 -133l184 133l147 -20l-334 -259z"/>
<glyph glyph-name="Ydieresis" horiz-adv-x="1045" unicode="Ÿ" d="M1065 1365l-457 -791v-574h-171v574l-457 791h201l363 -628l365 628h156zM479 1624q0 -42 -31.5 -72t-73.5 -30t-72.5 30t-30.5 71q0 43 30.5 72.5t69.5 29.5q48 0 78 -30t30 -71zM801 1625q0 -43 -31.5 -73t-74.5 -30t-74.5 30t-31.5 72q0 43 31.5 72.5t73.5 29.5 q44 0 75.5 -29.5t31.5 -71.5z"/>
<glyph glyph-name="circumflex" horiz-adv-x="1024" unicode="ˆ" d="M843 1194l-141 -20l-191 134l-184 -134l-147 20l334 260z"/>
<glyph glyph-name="caron" horiz-adv-x="1024" unicode="ˇ" d="M180 1420l141 20l191 -133l184 133l147 -20l-334 -259z"/>
<glyph glyph-name="ring" horiz-adv-x="1024" unicode="˚" d="M603 1326q0 38 -26 65t-59 27q-43 0 -69.5 -27t-26.5 -63q0 -38 27 -65t65 -27q37 0 63 26.5t26 63.5zM686 1326q0 -71 -50.5 -121.5t-121.5 -50.5t-123 51t-52 122q0 70 51.5 122t127.5 52q67 0 117.5 -51.5t50.5 -123.5z"/>
<glyph glyph-name="tilde" horiz-adv-x="1024" unicode="˜" d="M777 1380l77 -72q-106 -101 -202 -101q-49 0 -129 35q-87 38 -134 38q-81 0 -135 -66l-84 58q88 128 224 128q46 0 128 -34q89 -37 128 -37q65 0 127 51z"/>
<glyph glyph-name="tonos" horiz-adv-x="1024" unicode="΄" d="M277 1365l-264 -294l-75 58l218 320z"/>
<glyph glyph-name="dieresistonos" horiz-adv-x="1024" unicode="΅" d="M455 1303q0 -42 -31.5 -72t-73.5 -30t-72.5 30t-30.5 71q0 43 30.5 72.5t69.5 29.5q48 0 78 -30t30 -71zM777 1304q0 -43 -31.5 -73t-74.5 -30t-74.5 30t-31.5 72q0 43 31.5 72.5t73.5 29.5q44 0 75.5 -29.5t31.5 -71.5zM741 1622l-264 -199l-61 68l225 236z"/>
<glyph glyph-name="Alphatonos" horiz-adv-x="1111" unicode="Ά" d="M741 527l-210 656l-212 -656h422zM1090 0h-175l-138 399h-505l-122 -399h-143l443 1365h195zM320 1365l-264 -294l-75 58l218 320z"/>
<glyph glyph-name="anoteleia" horiz-adv-x="223" unicode="·" d="M223 631v-224h-223v224h223z"/>
<glyph glyph-name="Epsilontonos" horiz-adv-x="1122" unicode="Έ" d="M1054 150v-150h-883v1365h864v-150h-693v-434h550v-139h-550v-492h712zM104 1365l-264 -294l-75 58l218 320z"/>
<glyph glyph-name="Etatonos" horiz-adv-x="1316" unicode="Ή" d="M1146 0h-171v650h-633v-650h-171v1365h171v-565h633v565h171v-1365zM109 1365l-264 -294l-75 58l218 320z"/>
<glyph glyph-name="Iotatonos" horiz-adv-x="512" unicode="Ί" d="M342 0h-171v1365h171v-1365zM89 1365l-264 -294l-75 58l218 320z"/>
<glyph glyph-name="Omicrontonos" horiz-adv-x="1292" unicode="Ό" d="M646 112q179 0 280 163t101 420q0 264 -104.5 411t-277.5 147q-175 0 -278 -159t-103 -416q0 -251 104 -408.5t278 -157.5zM642 -27q-263 0 -410 204.5t-147 501.5q0 310 154 512t408 202q253 0 406 -198.5t153 -500.5q0 -290 -148.5 -505.5t-415.5 -215.5zM233 1365 l-264 -294l-75 58l218 320z"/>
<glyph glyph-name="Upsilontonos" horiz-adv-x="1045" unicode="Ύ" d="M1065 1365l-457 -791v-574h-171v574l-457 791h201l363 -628l365 628h156zM-54 1365l-264 -294l-75 58l218 320z"/>
<glyph glyph-name="Omegatonos" horiz-adv-x="1305" unicode="Ώ" d="M58 0v150h326q-299 180 -299 590q0 312 165 482.5t402 170.5t402 -170.5t165 -482.5q0 -410 -298 -590h326v-150h-501v150q294 189 294 593q0 239 -108.5 374.5t-279.5 135.5q-172 0 -280 -136.5t-108 -373.5q0 -404 295 -593v-150h-501zM226 1365l-264 -294l-75 58 l218 320z"/>
<glyph glyph-name="iotadieresistonos" horiz-adv-x="457" unicode="ΐ" d="M150 0v1010h157v-1010h-157zM172 1303q0 -42 -31.5 -72t-73.5 -30t-72.5 30t-30.5 71q0 43 30.5 72.5t69.5 29.5q48 0 78 -30t30 -71zM494 1304q0 -43 -31.5 -73t-74.5 -30t-74.5 30t-31.5 72q0 43 31.5 72.5t73.5 29.5q44 0 75.5 -29.5t31.5 -71.5zM458 1622l-264 -199 l-61 68l225 236z"/>
<glyph glyph-name="Alpha" horiz-adv-x="1097" unicode="Α" d="M741 527l-210 656l-212 -656h422zM1090 0h-175l-138 399h-505l-122 -399h-143l443 1365h195z"/>
<glyph glyph-name="Beta" horiz-adv-x="1238" unicode="Β" d="M336 150h366q134 0 207 65t73 169q0 73 -33 135.5t-93 96.5t-179 34h-341v-500zM336 780h297q185 0 247 70.5t62 165.5q0 94 -66.5 152t-198.5 58h-341v-446zM171 0v1365h540q204 0 302.5 -100t98.5 -232q0 -232 -242 -308q144 -37 214 -132t70 -215 q0 -161 -108.5 -269.5t-334.5 -108.5h-540z"/>
<glyph glyph-name="Gamma" horiz-adv-x="912" unicode="Γ" d="M171 0v1365h742v-150h-571v-1215h-171z"/>
<glyph glyph-name="Delta" horiz-adv-x="1199" unicode="Δ" d="M205 150h742l-360 1080h-20zM7 0l473 1365h229l483 -1365h-1185z"/>
<glyph glyph-name="Epsilon" horiz-adv-x="1122" unicode="Ε" d="M1054 150v-150h-883v1365h864v-150h-693v-434h550v-139h-550v-492h712z"/>
<glyph glyph-name="Zeta" horiz-adv-x="1066" unicode="Ζ" d="M1019 146v-146h-963v146l741 1071h-707v139h907v-114l-750 -1096h772z"/>
<glyph glyph-name="Eta" horiz-adv-x="1316" unicode="Η" d="M1146 0h-171v650h-633v-650h-171v1365h171v-565h633v565h171v-1365z"/>
<glyph glyph-name="Theta" horiz-adv-x="1292" unicode="Θ" d="M838 779v-150h-382v150h382zM645 1253q-162 0 -271.5 -149t-109.5 -433q0 -264 104 -411.5t279 -147.5t277.5 159t102.5 416q0 250 -103.5 408t-278.5 158zM649 1393q263 0 410 -205t147 -502q0 -308 -154 -510.5t-408 -202.5q-253 0 -406 198t-153 501q0 197 69.5 363 t193.5 262t301 96z"/>
<glyph glyph-name="Iota" horiz-adv-x="512" unicode="Ι" d="M342 0h-171v1365h171v-1365z"/>
<glyph glyph-name="Kappa" horiz-adv-x="1287" unicode="Κ" d="M1250 0h-187l-408 753l-313 -389v-364h-171v1365h171v-792l617 792h185l-370 -478z"/>
<glyph glyph-name="Lambda" horiz-adv-x="1145" unicode="Λ" d="M162 0h-155l443 1365h216l472 -1365h-202l-389 1183h-16z"/>
<glyph glyph-name="Mu" horiz-adv-x="1659" unicode="Μ" d="M1489 0h-166v1192l-444 -1192h-116l-447 1192v-1192h-145v1365h254l411 -1092l403 1092h250v-1365z"/>
<glyph glyph-name="Nu" horiz-adv-x="1346" unicode="Ν" d="M1176 0h-166l-706 1190l2 -90q3 -51 3 -86v-1014h-138v1365h214l660 -1113l-2 95q-2 56 -2 99v919h135v-1365z"/>
<glyph glyph-name="Xi" horiz-adv-x="1039" unicode="Ξ" d="M79 0v150h882v-150h-882zM176 649v150h685v-150h-685zM79 1215v150h882v-150h-882z"/>
<glyph glyph-name="Omicron" horiz-adv-x="1292" unicode="Ο" d="M646 112q179 0 280 163t101 420q0 264 -104.5 411t-277.5 147q-175 0 -278 -159t-103 -416q0 -251 104 -408.5t278 -157.5zM642 -27q-263 0 -410 204.5t-147 501.5q0 310 154 512t408 202q253 0 406 -198.5t153 -500.5q0 -290 -148.5 -505.5t-415.5 -215.5z"/>
<glyph glyph-name="Pi" horiz-adv-x="1274" unicode="Π" d="M179 0v1365h916v-1365h-170v1215h-575v-1215h-171z"/>
<glyph glyph-name="Rho" horiz-adv-x="1145" unicode="Ρ" d="M342 696h314q121 0 195 72.5t74 191.5q0 102 -66 182t-191 80h-326v-526zM342 0h-171v1365h484q227 0 335 -123.5t108 -281.5q0 -176 -117.5 -291t-307.5 -115h-331v-554z"/>
<glyph glyph-name="Sigma" horiz-adv-x="1001" unicode="Σ" d="M84 0v128l427 584l-406 525v128h816v-136h-609l399 -488l-437 -591h703v-150h-893z"/>
<glyph glyph-name="Tau" horiz-adv-x="994" unicode="Τ" d="M582 0h-170v1215h-391v150h953v-150h-392v-1215z"/>
<glyph glyph-name="Upsilon" horiz-adv-x="1045" unicode="Υ" d="M1065 1365l-457 -791v-574h-171v574l-457 791h201l363 -628l365 628h156z"/>
<glyph glyph-name="Phi" horiz-adv-x="1496" unicode="Φ" d="M669 1114q-388 -48 -388 -437q0 -374 388 -425v862zM826 252q389 50 389 437q0 374 -389 425v-862zM669 126q-293 27 -430 176t-137 375q0 244 140 390.5t427 172.5v166h157v-166q293 -27 430.5 -176t137.5 -374q0 -245 -140.5 -391.5t-427.5 -172.5v-167h-157v167z"/>
<glyph glyph-name="Chi" horiz-adv-x="1065" unicode="Χ" d="M1005 1365l-383 -625l438 -740h-193l-345 582l-358 -582h-159l437 706l-389 659h191l299 -504l306 504h156z"/>
<glyph glyph-name="Psi" horiz-adv-x="1559" unicode="Ψ" d="M694 0v260q-235 17 -350 98.5t-153 208t-38 392.5v406h171v-406q0 -224 20 -320.5t105.5 -163.5t244.5 -76v966h171v-966q158 8 241 72.5t106 160.5t23 327v406h171v-406q0 -262 -34.5 -388.5t-155.5 -210t-351 -100.5v-260h-171z"/>
<glyph glyph-name="Omega" horiz-adv-x="1305" unicode="Ω" d="M58 0v150h326q-299 180 -299 590q0 312 165 482.5t402 170.5t402 -170.5t165 -482.5q0 -410 -298 -590h326v-150h-501v150q294 189 294 593q0 239 -108.5 374.5t-279.5 135.5q-172 0 -280 -136.5t-108 -373.5q0 -404 295 -593v-150h-501z"/>
<glyph glyph-name="Iotadieresis" horiz-adv-x="512" unicode="Ϊ" d="M342 0h-171v1365h171v-1365zM221 1624q0 -42 -31.5 -72t-73.5 -30t-72.5 30t-30.5 71q0 43 30.5 72.5t69.5 29.5q48 0 78 -30t30 -71zM543 1625q0 -43 -31.5 -73t-74.5 -30t-74.5 30t-31.5 72q0 43 31.5 72.5t73.5 29.5q44 0 75.5 -29.5t31.5 -71.5z"/>
<glyph glyph-name="Upsilondieresis" horiz-adv-x="1045" unicode="Ϋ" d="M1065 1365l-457 -791v-574h-171v574l-457 791h201l363 -628l365 628h156zM479 1624q0 -42 -31.5 -72t-73.5 -30t-72.5 30t-30.5 71q0 43 30.5 72.5t69.5 29.5q48 0 78 -30t30 -71zM801 1625q0 -43 -31.5 -73t-74.5 -30t-74.5 30t-31.5 72q0 43 31.5 72.5t73.5 29.5 q44 0 75.5 -29.5t31.5 -71.5z"/>
<glyph glyph-name="alphatonos" horiz-adv-x="1193" unicode="ά" d="M793 531q-68 195 -133.5 286t-157.5 91q-102 0 -176.5 -105.5t-74.5 -303.5q0 -179 73 -288t177 -109q84 0 149.5 90t142.5 339zM1146 0h-172l-124 341q-128 -368 -373 -368q-176 0 -287 150t-111 375q0 248 119.5 394t302.5 146q229 0 345 -316l99 288h156l-170 -479z M834 1356l-414 -189l-43 81l396 228z"/>
<glyph glyph-name="epsilontonos" horiz-adv-x="909" unicode="έ" d="M564 593v-131q-133 0 -183 -10t-85.5 -49.5t-35.5 -108.5q0 -92 60 -142t147 -50q207 0 266 224l148 -26q-32 -138 -138.5 -232.5t-291.5 -94.5q-180 0 -271.5 93.5t-91.5 219.5q0 189 213 249q-187 77 -187 233q0 113 92 191.5t267 78.5q165 0 260.5 -82.5t115.5 -202.5 l-146 -27q-40 182 -230 182q-187 0 -187 -154q0 -79 56 -120t222 -41zM733 1356l-414 -189l-43 81l396 228z"/>
<glyph glyph-name="etatonos" horiz-adv-x="1090" unicode="ή" d="M946 -341h-157v977q0 161 -57 214t-136 53q-127 0 -208 -98t-81 -251v-554h-157v1010h146v-186q123 214 330 214q119 0 192.5 -55.5t100.5 -135.5t27 -263v-925zM817 1356l-414 -189l-43 81l396 228z"/>
<glyph glyph-name="iotatonos" horiz-adv-x="457" unicode="ί" d="M151 0v1010h157v-1010h-157zM478 1356l-414 -189l-43 81l396 228z"/>
<glyph glyph-name="upsilondieresistonos" horiz-adv-x="1039" unicode="ΰ" d="M293 1010v-639q0 -108 16 -157.5t70.5 -80.5t139.5 -31q82 0 137 30t72 79t17 160v639h157v-639q0 -160 -37.5 -236t-119 -119t-219.5 -43q-124 0 -212.5 33.5t-133 115t-44.5 249.5v639h157zM462 1303q0 -42 -31.5 -72t-73.5 -30t-72.5 30t-30.5 71q0 43 30.5 72.5 t69.5 29.5q48 0 78 -30t30 -71zM784 1304q0 -43 -31.5 -73t-74.5 -30t-74.5 30t-31.5 72q0 43 31.5 72.5t73.5 29.5q44 0 75.5 -29.5t31.5 -71.5zM748 1622l-264 -199l-61 68l225 236z"/>
<glyph glyph-name="alpha" horiz-adv-x="1193" unicode="α" d="M793 531q-68 195 -133.5 286t-157.5 91q-102 0 -176.5 -105.5t-74.5 -303.5q0 -179 73 -288t177 -109q84 0 149.5 90t142.5 339zM1146 0h-172l-124 341q-128 -368 -373 -368q-176 0 -287 150t-111 375q0 248 119.5 394t302.5 146q229 0 345 -316l99 288h156l-170 -479z "/>
<glyph glyph-name="beta" horiz-adv-x="1106" unicode="β" d="M321 203q86 -107 226 -107q137 0 217.5 87t80.5 225q0 131 -73.5 212.5t-238.5 81.5v122q235 3 235 230q0 100 -58.5 160.5t-172.5 60.5q-85 0 -132 -34t-65.5 -91t-18.5 -199v-748zM164 -341v1284q0 177 33 264t117.5 136.5t223.5 49.5q189 0 291 -89.5t102 -230.5 q0 -202 -206 -297q292 -83 292 -377q0 -184 -114.5 -305t-307.5 -121q-188 0 -274 120v-434h-157z"/>
<glyph glyph-name="gamma" horiz-adv-x="875" unicode="γ" d="M358 -341v373l-358 978h178l268 -783l264 783h151l-346 -978v-373h-157z"/>
<glyph glyph-name="delta" horiz-adv-x="1049" unicode="δ" d="M525 892q-113 0 -188.5 -95t-75.5 -296q0 -212 76 -305.5t189 -93.5q119 0 191 99t72 298q0 214 -77 303.5t-187 89.5zM850 1365v-123h-443l185 -142q220 -168 294.5 -285.5t74.5 -312.5q0 -245 -115.5 -387t-314.5 -142q-202 0 -322 135.5t-120 366.5q0 175 59.5 283.5 t152 159.5t224.5 54l-330 270v123h655z"/>
<glyph glyph-name="epsilon" horiz-adv-x="909" unicode="ε" d="M564 593v-131q-133 0 -183 -10t-85.5 -49.5t-35.5 -108.5q0 -92 60 -142t147 -50q207 0 266 224l148 -26q-32 -138 -138.5 -232.5t-291.5 -94.5q-180 0 -271.5 93.5t-91.5 219.5q0 189 213 249q-187 77 -187 233q0 113 92 191.5t267 78.5q165 0 260.5 -82.5t115.5 -202.5 l-146 -27q-40 182 -230 182q-187 0 -187 -154q0 -79 56 -120t222 -41z"/>
<glyph glyph-name="zeta" horiz-adv-x="741" unicode="ζ" d="M123 1242v123h567v-92q-430 -430 -430 -862q0 -100 25.5 -159t68 -80t147.5 -27q125 -8 164 -58.5t39 -127.5q0 -125 -82 -314l-150 27q76 165 76 243q0 45 -29.5 62t-108.5 20q-130 6 -194.5 56t-96 142.5t-31.5 199.5q0 241 139.5 475t289.5 372h-394z"/>
<glyph glyph-name="eta" horiz-adv-x="1090" unicode="η" d="M946 -341h-157v977q0 161 -57 214t-136 53q-127 0 -208 -98t-81 -251v-554h-157v1010h146v-186q123 214 330 214q119 0 192.5 -55.5t100.5 -135.5t27 -263v-925z"/>
<glyph glyph-name="theta" horiz-adv-x="1073" unicode="θ" d="M262 656q1 -293 77 -427.5t197 -134.5q112 0 190 119t85 443h-549zM262 771h549q-14 285 -91.5 392.5t-183.5 107.5q-105 0 -182.5 -107.5t-91.5 -392.5zM536 1393q203 0 320.5 -177t117.5 -533q0 -358 -118 -534t-320 -176q-131 0 -233.5 80t-153 242t-50.5 388 q0 255 57.5 410t156.5 227.5t223 72.5z"/>
<glyph glyph-name="iota" horiz-adv-x="457" unicode="ι" d="M150 0v1010h157v-1010h-157z"/>
<glyph glyph-name="kappa" horiz-adv-x="986" unicode="κ" d="M586 672l366 -672h-185l-291 556l-169 -177v-379h-157v1010h157v-331q0 -70 -7 -150q38 48 99 114l335 367h174z"/>
<glyph glyph-name="lambda" horiz-adv-x="846" unicode="λ" d="M4 0l337 941l-149 424h165l482 -1365h-169l-262 764l-258 -764h-146z"/>
<glyph glyph-name="mu" horiz-adv-x="1095" unicode="μ" d="M150 -341v1351h157v-566q0 -111 21 -174t77.5 -110.5t136.5 -47.5q246 0 246 344v554h157v-1010h-143v158q-89 -185 -255 -185q-159 0 -240 158v-472h-157z"/>
<glyph glyph-name="nu" horiz-adv-x="922" unicode="ν" d="M897 1010l-349 -1010h-163l-361 1010h174l281 -821l278 821h140z"/>
<glyph glyph-name="xi" horiz-adv-x="840" unicode="ξ" d="M615 -328q56 145 56 229q0 56 -33.5 75.5t-138.5 24.5q-135 7 -221.5 42t-143 120.5t-56.5 216.5q0 299 304 364q-231 56 -231 239q0 94 69 167.5t183 103.5h-268v111h675v-116h-116q-201 0 -291 -69t-90 -173q0 -210 318 -210h58v-121h-58q-130 0 -208 -25.5 t-125.5 -93.5t-47.5 -167q0 -94 52 -160.5t202 -74.5q140 -6 196 -18.5t94.5 -60.5t38.5 -137q0 -136 -64 -294z"/>
<glyph glyph-name="omicron" horiz-adv-x="1064" unicode="ο" d="M531 102q120 0 201 99t81 308q0 210 -85 304.5t-199 94.5q-117 0 -198 -95.5t-81 -302.5q0 -219 81 -313.5t200 -94.5zM519 -27q-208 0 -324.5 154t-116.5 382q0 241 131 385t326 144q209 0 329.5 -151.5t120.5 -378.5q0 -236 -130 -385.5t-336 -149.5z"/>
<glyph glyph-name="pi" horiz-adv-x="1094" unicode="π" d="M188 0v887h-126v123h972v-123h-127v-887h-157v887h-405v-887h-157z"/>
<glyph glyph-name="rho" horiz-adv-x="1084" unicode="ρ" d="M557 908q-265 0 -265 -382q0 -209 77 -307.5t198 -98.5q122 0 194.5 100.5t72.5 294.5q0 393 -277 393zM123 -341v712q0 242 30.5 365t137.5 212.5t268 89.5q208 0 327.5 -142.5t119.5 -384.5q0 -241 -114.5 -381.5t-291.5 -140.5q-216 0 -320 219v-549h-157z"/>
<glyph glyph-name="sigma1" horiz-adv-x="925" unicode="ς" d="M656 -328q56 107 56 228q0 62 -23.5 86t-101.5 35q-196 27 -297.5 82.5t-156 164t-54.5 260.5q0 227 109 368.5t307 141.5q322 0 383 -353l-151 -27q-36 250 -230 250q-114 0 -184.5 -91.5t-70.5 -280.5q0 -172 76.5 -258.5t296.5 -116.5q115 -16 161 -35.5t74 -67 t28 -131.5q0 -128 -68 -282z"/>
<glyph glyph-name="sigma" horiz-adv-x="1044" unicode="σ" d="M515 894q-111 0 -188 -93.5t-77 -299.5q0 -210 79.5 -304.5t187.5 -94.5q110 0 186 96t76 301q0 215 -76.5 305t-187.5 90zM1018 1010v-122h-254q187 -144 187 -398q0 -246 -122 -381.5t-316 -135.5q-198 0 -316.5 140.5t-118.5 376.5q0 244 121.5 389t326.5 145 q54 0 115 -14h377z"/>
<glyph glyph-name="tau" horiz-adv-x="828" unicode="τ" d="M333 0v887h-303v123h763v-123h-303v-887h-157z"/>
<glyph glyph-name="upsilon" horiz-adv-x="1039" unicode="υ" d="M293 1010v-639q0 -108 16 -157.5t70.5 -80.5t139.5 -31q82 0 137 30t72 79t17 160v639h157v-639q0 -160 -37.5 -236t-119 -119t-219.5 -43q-124 0 -212.5 33.5t-133 115t-44.5 249.5v639h157z"/>
<glyph glyph-name="phi" horiz-adv-x="1283" unicode="φ" d="M717 96q314 42 314 418q0 190 -87.5 294t-226.5 111v-823zM567 -341v314q-244 23 -361 170t-117 368q0 333 265 461l63 -121q-164 -94 -164 -341q0 -365 314 -414v932q44 10 93 10q253 0 394 -153t141 -383q0 -212 -125.5 -363t-352.5 -166v-314h-150z"/>
<glyph glyph-name="chi" horiz-adv-x="917" unicode="χ" d="M359 391l-316 619h177l252 -501l259 501h153l-340 -641l361 -710h-179l-285 609l-304 -609h-160z"/>
<glyph glyph-name="psi" horiz-adv-x="1393" unicode="ψ" d="M618 -341v314q-169 5 -276 58.5t-149.5 148t-42.5 282.5v548h157v-548q0 -173 33 -234.5t102 -92.5t176 -32v907h157v-907q108 1 181.5 35.5t101.5 100.5t28 223v548h157v-548q0 -173 -36.5 -269t-143 -155.5t-288.5 -64.5v-314h-157z"/>
<glyph glyph-name="omega" horiz-adv-x="1377" unicode="ω" d="M767 760v-365q0 -194 42 -243.5t98 -49.5q92 0 150.5 86t58.5 280q0 285 -161 490l111 80q223 -236 223 -552q0 -264 -111.5 -388.5t-262.5 -124.5q-153 0 -226 172q-74 -172 -226 -172q-157 0 -265.5 129t-108.5 377q0 329 223 559l111 -80q-162 -205 -162 -490 q0 -190 58.5 -278t151.5 -88q56 0 97.5 49.5t41.5 243.5v365h157z"/>
<glyph glyph-name="iotadieresis" horiz-adv-x="457" unicode="ϊ" d="M150 0v1010h157v-1010h-157zM172 1303q0 -42 -31.5 -72t-73.5 -30t-72.5 30t-30.5 71q0 43 30.5 72.5t69.5 29.5q48 0 78 -30t30 -71zM494 1304q0 -43 -31.5 -73t-74.5 -30t-74.5 30t-31.5 72q0 43 31.5 72.5t73.5 29.5q44 0 75.5 -29.5t31.5 -71.5z"/>
<glyph glyph-name="upsilondieresis" horiz-adv-x="1039" unicode="ϋ" d="M293 1010v-639q0 -108 16 -157.5t70.5 -80.5t139.5 -31q82 0 137 30t72 79t17 160v639h157v-639q0 -160 -37.5 -236t-119 -119t-219.5 -43q-124 0 -212.5 33.5t-133 115t-44.5 249.5v639h157zM462 1303q0 -42 -31.5 -72t-73.5 -30t-72.5 30t-30.5 71q0 43 30.5 72.5 t69.5 29.5q48 0 78 -30t30 -71zM784 1304q0 -43 -31.5 -73t-74.5 -30t-74.5 30t-31.5 72q0 43 31.5 72.5t73.5 29.5q44 0 75.5 -29.5t31.5 -71.5z"/>
<glyph glyph-name="omicrontonos" horiz-adv-x="1064" unicode="ό" d="M531 102q120 0 201 99t81 308q0 210 -85 304.5t-199 94.5q-117 0 -198 -95.5t-81 -302.5q0 -219 81 -313.5t200 -94.5zM519 -27q-208 0 -324.5 154t-116.5 382q0 241 131 385t326 144q209 0 329.5 -151.5t120.5 -378.5q0 -236 -130 -385.5t-336 -149.5zM780 1356 l-414 -189l-43 81l396 228z"/>
<glyph glyph-name="upsilontonos" horiz-adv-x="1039" unicode="ύ" d="M293 1010v-639q0 -108 16 -157.5t70.5 -80.5t139.5 -31q82 0 137 30t72 79t17 160v639h157v-639q0 -160 -37.5 -236t-119 -119t-219.5 -43q-124 0 -212.5 33.5t-133 115t-44.5 249.5v639h157zM768 1356l-414 -189l-43 81l396 228z"/>
<glyph glyph-name="omegatonos" horiz-adv-x="1377" unicode="ώ" d="M767 760v-365q0 -194 42 -243.5t98 -49.5q92 0 150.5 86t58.5 280q0 285 -161 490l111 80q223 -236 223 -552q0 -264 -111.5 -388.5t-262.5 -124.5q-153 0 -226 172q-74 -172 -226 -172q-157 0 -265.5 129t-108.5 377q0 329 223 559l111 -80q-162 -205 -162 -490 q0 -190 58.5 -278t151.5 -88q56 0 97.5 49.5t41.5 243.5v365h157zM938 1356l-414 -189l-43 81l396 228z"/>
<glyph glyph-name="endash" d="M999 573v-122h-797v122h797z" unicode="–"/>
<glyph glyph-name="emdash" horiz-adv-x="1365" unicode="—" d="M1362 573v-122h-1359v122h1359z"/>
<glyph glyph-name="quoteleft" horiz-adv-x="512" unicode="‘" d="M154 923v203l134 239h71l-99 -239h99v-203h-205z"/>
<glyph glyph-name="quotesinglbase" horiz-adv-x="512" unicode="‚" d="M359 203v-203l-135 -239h-70l99 239h-99v203h205z"/>
<glyph glyph-name="quotedblleft" horiz-adv-x="821" unicode="“" d="M453 928v171l161 266h74l-117 -240h83v-197h-201zM154 928v171l156 266h71l-112 -240h82v-197h-197z"/>
<glyph glyph-name="quotedblright" horiz-adv-x="821" unicode="”" d="M378 1365v-170l-161 -267h-74l117 241h-82v196h200zM677 1365v-170l-156 -267h-71l112 241h-81v196h196z"/>
<glyph glyph-name="dagger" d="M527 1365h146v-398h380v-136h-380v-1172h-146v1172h-380v136h380v398z" unicode="†"/>
<glyph glyph-name="daggerdbl" d="M527 1365h146v-398h380v-136h-380v-625h380v-136h-380v-411h-146v411h-380v136h380v625h-380v136h380v398z" unicode="‡"/>
<glyph glyph-name="ellipsis" horiz-adv-x="1526" unicode="…" d="M1383 224v-224h-223v224h223zM873 224v-224h-221v224h221zM366 224v-224h-223v224h223z"/>
<glyph glyph-name="perthousand" horiz-adv-x="2172" unicode="‰" d="M1819 66q86 0 128 74.5t42 188.5q0 123 -42.5 206.5t-133.5 83.5q-172 0 -172 -273q0 -280 178 -280zM1817 -14q-129 0 -205.5 103t-76.5 254q0 148 72.5 250.5t206.5 102.5q137 0 210 -106.5t73 -251.5q0 -140 -73.5 -246t-206.5 -106zM1122 66q86 0 128.5 74t42.5 189 q0 123 -43 206.5t-134 83.5q-173 0 -173 -273q0 -280 179 -280zM1120 -14q-133 0 -207.5 105t-74.5 252q0 148 72.5 250.5t206.5 102.5q140 0 211 -108t71 -250q0 -140 -73.5 -246t-205.5 -106zM388 0h-126l827 1365h124zM359 748q86 0 128.5 75t42.5 189q0 127 -43.5 208 t-133.5 81q-171 0 -171 -272q0 -281 177 -281zM357 669q-131 0 -206.5 104t-75.5 252q0 149 73 251.5t206 102.5q141 0 212.5 -108t71.5 -250q0 -141 -74 -246.5t-207 -105.5z"/>
<glyph glyph-name="minute" horiz-adv-x="379" unicode="′" d="M156 837h-100l161 528h160z"/>
<glyph glyph-name="second" horiz-adv-x="647" unicode="″" d="M452 837h-101l162 528h160zM129 837h-100l161 528h160z"/>
<glyph glyph-name="guilsinglleft" horiz-adv-x="439" unicode="‹" d="M254 240l-172 293l172 282h90l-106 -282l106 -293h-90z"/>
<glyph glyph-name="guilsinglright" horiz-adv-x="439" unicode="›" d="M185 815l173 -292l-173 -283h-89l106 283l-106 292h89z"/>
<glyph glyph-name="uni203E" d="M-42 1869h1286v-74h-1286v74z" unicode="‾"/>
<glyph glyph-name="uni2044" horiz-adv-x="218" unicode="⁄" d="M-247 0h-112l827 1365h110z"/>
<glyph glyph-name="Euro" horiz-adv-x="1200" unicode="€" d="M1139 373q-60 -205 -173 -302.5t-300 -97.5q-194 0 -333 139t-186 386h-143v116h129q-2 25 -2 82q0 45 2 66h-129v117h141q47 261 198.5 387.5t336.5 126.5q360 0 457 -383l-166 -23q-73 270 -293 270q-122 0 -219 -87.5t-135 -290.5h401v-117h-416q-2 -25 -2 -80 q0 -47 2 -68h416v-116h-403q38 -215 142 -302t206 -87q235 0 311 292z"/>
<glyph glyph-name="trademark" horiz-adv-x="1592" unicode="™" d="M1500 587h-121v619l-247 -619h-87l-249 619v-619h-109v778h172l238 -590l234 590h169v-778zM360 587h-125v680h-234v98h594v-98h-235v-680z"/>
<glyph glyph-name="arrowleft" horiz-adv-x="2048" unicode="←" d="M492 157q-121 135 -209 205.5t-204 131.5v46q116 61 203 130.5t210 205.5h76q-46 -96 -77.5 -147.5t-88.5 -124.5h1566v-175h-1566q55 -69 88 -122.5t78 -149.5h-76z"/>
<glyph glyph-name="arrowup" horiz-adv-x="1024" unicode="↑" d="M153 926q135 122 205.5 209.5t131.5 203.5h45q61 -116 130.5 -202.5t206.5 -210.5v-76q-97 46 -148.5 78t-123.5 88v-1445h-175v1445q-69 -54 -122.5 -87t-149.5 -79v76z"/>
<glyph glyph-name="arrowright" horiz-adv-x="2048" unicode="→" d="M1555 876q122 -135 209.5 -205t203.5 -132v-45q-116 -61 -202.5 -130.5t-210.5 -206.5h-76q46 97 78 148.5t88 123.5h-1566v175h1566q-54 69 -87 122.5t-79 149.5h76z"/>
<glyph glyph-name="arrowdown" horiz-adv-x="1024" unicode="↓" d="M871 -16q-135 -122 -205.5 -209.5t-131.5 -203.5h-45q-61 116 -131 202.5t-206 210.5v76q97 -46 148.5 -78t123.5 -88v1445h175v-1445q69 54 122.5 87t149.5 79v-76z"/>
<glyph glyph-name="partialdiff" horiz-adv-x="1012" unicode="∂" d="M911 629q-81 225 -284 225q-178 0 -286 -190.5t-108 -399.5q0 -108 54 -172.5t143 -64.5q136 0 279.5 162.5t201.5 439.5zM295 1120h-45q131 303 379 303q161 0 263.5 -127t102.5 -376q0 -358 -164.5 -654.5t-427.5 -296.5q-155 0 -246 91t-91 245q0 239 166.5 420.5 t383.5 181.5q222 0 312 -190h4q10 144 10 186q0 175 -92.5 276t-253.5 101q-194 0 -301 -160z"/>
<glyph glyph-name="product" horiz-adv-x="1686" unicode="∏" d="M1645 -207h-629v47q120 0 159.5 41t39.5 125v1419h-734v-1419q0 -84 39.5 -125t159.5 -41v-47h-629v47q122 0 160.5 41t38.5 125v1282q0 101 -48.5 152t-146.5 51v47h1586v-47q-98 0 -146.5 -51t-48.5 -152v-1282q0 -84 38.5 -125t160.5 -41v-47z"/>
<glyph glyph-name="summation" horiz-adv-x="1460" unicode="∑" d="M1423 238q-32 -125 -54 -240t-34 -219q-63 11 -102.5 16.5t-54.5 5.5h-1031q-20 0 -59 -3t-59 -3l714 815l-710 930q70 -7 123 -10.5t90 -3.5h1018l12 -326h-41q-31 102 -52.5 141t-81.5 66q-30 13 -74.5 20t-104.5 7h-539l559 -734l-602 -694h760q127 0 177.5 52 t98.5 180h47z"/>
<glyph glyph-name="minus" d="M123 753h956v-138h-956v138z" unicode="−"/>
<glyph glyph-name="radical" horiz-adv-x="1124" unicode="√" d="M1055 1868l-307 -1946l-498 1028l-197 -96l-33 68l299 147l404 -825l260 1634z"/>
<glyph glyph-name="infinity" horiz-adv-x="1460" unicode="∞" d="M614 557l11 33q-96 215 -267 215q-110 0 -179.5 -76.5t-69.5 -198.5q0 -123 66.5 -207.5t162.5 -84.5q82 0 149.5 65t126.5 254zM750 465q64 -138 134.5 -201t176.5 -63q126 0 207.5 91t81.5 234q0 140 -84 240t-199 100q-55 0 -97.5 -21.5t-74.5 -62t-64 -116.5z M653 668q71 169 159 222.5t212 53.5q161 0 272 -116.5t111 -301.5q0 -186 -111.5 -303t-238.5 -117q-95 0 -170.5 63t-165.5 224q-117 -233 -324 -233q-149 0 -246.5 104.5t-97.5 263.5q0 157 89 262t218 105q80 0 149 -42t144 -185z"/>
<glyph glyph-name="intersection" horiz-adv-x="1473" unicode="∩" d="M292 0h-134v637q0 279 13.5 392.5t81 222.5t200 182.5t283.5 73.5q152 0 284.5 -74.5t198 -178t81 -218t15.5 -400.5v-637h-134v644q0 241 -12 345.5t-60.5 188t-152.5 142t-220 58.5q-117 0 -221 -60t-151 -141t-59.5 -186t-12.5 -347v-644z"/>
<glyph glyph-name="approxequal" horiz-adv-x="1124" unicode="≈" d="M1022 487h51q-21 -155 -95.5 -238t-186.5 -83q-96 0 -268.5 97t-246.5 97q-149 0 -178 -186h-47q20 153 93.5 236.5t181.5 83.5q47 0 112 -21.5t219 -103.5q118 -62 193 -62q144 0 172 180zM1022 874h51q-21 -155 -95.5 -238t-186.5 -83q-97 0 -304 117q-139 78 -211 78 q-149 0 -178 -187h-47q20 154 93.5 238t181.5 84q47 0 107 -19.5t224 -107.5q118 -62 193 -62q144 0 172 180z"/>
<glyph glyph-name="notequal" horiz-adv-x="1124" unicode="≠" d="M1106 279h-621l-184 -330l-100 57l151 273h-321v112h385l157 285h-542v112h606l186 336l101 -57l-156 -279h338v-112h-399l-160 -285h559v-112z"/>
<glyph glyph-name="equivalence" d="M157 464h887v-139h-887v139zM157 764h887v-139h-887v139zM157 1064h887v-138h-887v138z" unicode="≡"/>
<glyph glyph-name="lessequal" horiz-adv-x="1124" unicode="≤" d="M1077 0h-1018v112h1018v-112zM1077 240l-1018 471v127l1018 471v-127l-887 -408l887 -407v-127z"/>
<glyph glyph-name="greaterequal" horiz-adv-x="1124" unicode="≥" d="M1077 0h-1018v112h1018v-112zM1077 711l-1018 -471v127l887 407l-887 408v127l1018 -471v-127z"/>
<glyph glyph-name="lozenge" horiz-adv-x="1012" unicode="◊" d="M839 763l-335 652l-335 -652l335 -652zM962 763l-397 -763h-122l-397 763l397 763h122z"/>
<glyph glyph-name="spade" horiz-adv-x="1344" unicode="♠" d="M673 1231q26 -108 80 -193t192.5 -210.5t175.5 -193t37 -136.5q0 -95 -64 -159t-154 -64q-82 0 -154 57q-54 42 -101 133q1 -147 38.5 -233.5t119.5 -136t219 -58.5l7 -37h-792l7 37q184 0 283.5 105.5t99.5 306.5v16q-45 -95 -111.5 -142.5t-149.5 -47.5q-90 0 -155 65 t-65 154q0 74 32 133q45 83 146.5 166t149.5 137q74 83 107.5 148t51.5 153z"/>
<glyph glyph-name="club" horiz-adv-x="1344" unicode="♣" d="M1098 0h-848l8 34q165 35 219 69q81 51 132.5 151t51.5 210q0 16 -1 47q-61 -124 -148.5 -181t-178.5 -57q-116 0 -197 81t-81 199q0 116 74 195.5t165 81.5q63 -2 166 -53q-42 69 -54.5 105t-12.5 77q0 115 79 193.5t198 78.5q117 0 197.5 -78.5t80.5 -189.5 q0 -88 -69 -186q84 40 101 45q27 8 61 8q100 0 173.5 -78.5t73.5 -194.5q0 -120 -80.5 -201.5t-196.5 -82.5q-77 4 -134.5 33t-107.5 80q-35 37 -87 125q4 -159 48.5 -251.5t136.5 -153.5q62 -41 223 -72z"/>
<glyph glyph-name="heart" horiz-adv-x="1344" unicode="♥" d="M674 -24q-31 118 -88.5 221.5t-222.5 321.5q-121 160 -149 203q-46 70 -66.5 128.5t-20.5 118.5q0 111 74 186t180 76q113 -1 194 -79q61 -58 99 -173q32 112 92 171q83 81 191 81q109 0 184.5 -74t75.5 -176q0 -91 -43.5 -188t-170.5 -257q-164 -207 -239 -340 q-59 -105 -90 -220z"/>
<glyph glyph-name="diamond" horiz-adv-x="1344" unicode="♦" d="M671 1234q88 -154 218 -327q150 -200 242 -303q-74 -78 -242 -302q-136 -182 -218 -326q-27 52 -74 121q-81 120 -201 279q-26 35 -183 228q101 115 260 328q118 158 198 302z"/>
</font>
</defs>
</svg>
