<?xml version="1.0" standalone="no"?> 
<!DOCTYPE svg PUBLIC "-//W3C//DTD SVG 1.1//EN" "http://www.w3.org/Graphics/SVG/1.1/DTD/svg11.dtd" >
<svg xmlns="http://www.w3.org/2000/svg">
<defs>
  <font id="fontcolwiz" horiz-adv-x="448">
    <font-face font-family="fontcolwiz"
      units-per-em="448" ascent="448"
      descent="0" />
    <missing-glyph horiz-adv-x="0" />
    <glyph glyph-name="add"
      unicode="&#xEA01;"
      horiz-adv-x="448" d=" M196 280L56 280L56 196L196 196L196 56L280 56L280 196L420 196L420 280L280 280L280 420L196 420L196 280z" />
    <glyph glyph-name="alert"
      unicode="&#xEA02;"
      horiz-adv-x="448" d=" M414.344 135.604L252.14 377.2440000000001C238.924 396.956 209.748 396.956 196.532 377.2440000000001L33.684 135.604C18.872 113.54 34.776 84 61.46 84H386.512C413.224 84 429.128 113.54 414.344 135.604zM224 112C208.544 112 196 124.544 196 140S208.544 168 224 168S252 155.456 252 140S239.456 112 224 112zM252 224C252 208.544 239.456 196 224 196S196 208.544 196 224V308C196 323.456 208.544 336 224 336S252 323.456 252 308V224z" />
    <glyph glyph-name="android"
      unicode="&#xEA03;"
      horiz-adv-x="448" d=" M277.928 406.812L296.996 442.092C298.256 444.416 297.808 446.208 295.652 447.468C293.328 448.532 291.536 448 290.276 445.844L270.956 410.312C253.96 417.844 235.984 421.624 217 421.624C198.016 421.624 180.04 417.844 163.044 410.312L143.696 445.844C142.464 448 140.672 448.532 138.348 447.468C136.192 446.208 135.744 444.416 137.004 442.092L156.072 406.812C136.724 396.928 121.352 383.152 109.872 365.484C98.42 347.788 92.708 328.468 92.708 307.468H341.04C341.04 328.468 335.3 347.788 323.848 365.484C312.396 383.152 297.108 396.928 277.928 406.812zM167.748 355.516C165.676 353.444 163.212 352.4360000000001 160.356 352.4360000000001C157.5 352.4360000000001 155.064 353.444 153.104 355.516C151.144 357.588 150.164 360.052 150.164 362.9360000000001C150.164 365.7920000000001 151.144 368.256 153.104 370.328C155.064 372.4 157.5 373.4360000000001 160.356 373.4360000000001C163.212 373.4360000000001 165.676 372.4 167.748 370.328C169.792 368.256 170.828 365.7920000000001 170.828 362.936C170.828 360.052 169.792 357.588 167.748 355.516zM280.896 355.516C278.936 353.444 276.5 352.4360000000001 273.644 352.4360000000001C270.788 352.4360000000001 268.324 353.444 266.28 355.516C264.208 357.588 263.172 360.052 263.172 362.9360000000001C263.172 365.7920000000001 264.208 368.256 266.28 370.328C268.324 372.4 270.788 373.4360000000001 273.644 373.4360000000001C276.5 373.4360000000001 278.936 372.4 280.896 370.328C282.856 368.256 283.836 365.7920000000001 283.836 362.936C283.836 360.052 282.856 357.588 280.896 355.516zM397.936 294.952C392.588 300.2440000000001 386.036 302.8760000000001 378.336 302.8760000000001C370.832 302.8760000000001 364.3920000000001 300.2440000000001 359.016 294.952C353.6400000000001 289.6600000000001 350.952 283.136 350.952 275.4360000000001V159.6560000000001C350.952 151.9280000000001 353.6400000000001 145.376 359.016 140.0000000000001C364.3920000000001 134.624 370.8320000000001 131.9080000000001 378.336 131.9080000000001C386.036 131.9080000000001 392.588 134.624 397.936 140.0000000000001C403.312 145.376 406 151.9280000000001 406 159.6560000000001V275.4360000000001C406 283.1360000000001 403.312 289.6600000000001 397.936 294.9520000000001zM93.772 118.44C93.772 110.208 96.656 103.208 102.368 97.468C108.108 91.728 115.08 88.844 123.312 88.844H143.164L143.444 27.72C143.444 20.02 146.132 13.468 151.508 8.064C156.856 2.688 163.324 0 170.828 0C178.528 0 185.052 2.688 190.428 8.064C195.804 13.468 198.492 20.02 198.492 27.72V88.844H235.536V27.72C235.536 20.02 238.224 13.468 243.572 8.064C248.948 2.688 255.472 0 263.172 0C270.872 0 277.396 2.688 282.772 8.064C288.148 13.468 290.836 20.02 290.836 27.72V88.844H310.968C319.004 88.844 325.892 91.7 331.632 97.468C337.344 103.208 340.228 110.208 340.228 118.44V297.7800000000001H93.772V118.44zM55.664 302.876C47.964 302.876 41.412 300.188 36.064 294.812C30.688 289.408 28 282.968 28 275.436V159.656C28 151.928 30.688 145.376 36.064 140C41.412 134.624 47.964 131.908 55.636 131.908C63.336 131.908 69.832 134.624 75.124 140C80.388 145.376 83.048 151.928 83.048 159.656V275.436C83.048 282.968 80.36 289.436 74.984 294.812C69.608 300.188 63.168 302.876 55.664 302.876z" />
    <glyph glyph-name="angle_down"
      unicode="&#xEA04;"
      horiz-adv-x="448" d=" M224 140C216.832 140 209.664 142.744 204.204 148.204L64.204 288.204C53.256 299.152 53.256 316.848 64.204 327.796S92.848 338.744 103.796 327.796L224 207.5919999999999L344.204 327.796C355.152 338.7439999999999 372.848 338.7439999999999 383.796 327.796S394.744 299.152 383.796 288.204L243.796 148.204C238.336 142.744 231.168 140 224 140z" />
    <glyph glyph-name="angle_left"
      unicode="&#xEA05;"
      horiz-adv-x="448" d=" M280 56C272.832 56 265.664 58.744 260.204 64.204L120.204 204.204C109.256 215.152 109.256 232.848 120.204 243.796L260.204 383.796C271.152 394.744 288.848 394.744 299.796 383.796S310.744 355.152 299.796 344.204L179.592 224L299.796 103.7960000000001C310.744 92.848 310.744 75.152 299.796 64.204C294.336 58.744 287.168 56.0000000000001 280 56.0000000000001z" />
    <glyph glyph-name="angle_right"
      unicode="&#xEA06;"
      horiz-adv-x="448" d=" M168 56C160.832 56 153.664 58.744 148.204 64.204C137.256 75.152 137.256 92.848 148.204 103.796L268.408 224L148.204 344.204C137.256 355.152 137.256 372.848 148.204 383.796S176.848 394.7440000000001 187.796 383.796L327.7960000000001 243.796C338.7440000000001 232.848 338.7440000000001 215.152 327.7960000000001 204.204L187.796 64.204C182.336 58.744 175.168 56 168 56z" />
    <glyph glyph-name="angle_up"
      unicode="&#xEA07;"
      horiz-adv-x="448" d=" M364 140C356.832 140 349.664 142.744 344.204 148.204L224 268.408L103.796 148.204C92.848 137.256 75.152 137.256 64.204 148.204S53.256 176.848 64.204 187.796L204.204 327.796C215.152 338.744 232.848 338.744 243.796 327.796L383.796 187.796C394.744 176.848 394.744 159.152 383.796 148.204C378.336 142.744 371.168 140 364 140z" />
    <glyph glyph-name="apps"
      unicode="&#xEA08;"
      horiz-adv-x="448" d=" M392 420H56C37.24 420 28 411.068 28 392V84C28 64.932 37.24 56 56 56H392C410.76 56 420 64.932 420 84V392C420 411.068 410.76 420 392 420zM336 392H364V364H336V392zM392 112C392 84 392 84 364 84H84C56 84 56 84 56 112V308C56 336 56 336 84 336H364C392 336 392 336 392 308V112z" />
    <glyph glyph-name="arrow_down"
      unicode="&#xEA09;"
      horiz-adv-x="448" d=" M334.74 187.572C332.4720000000001 192.584 327.516 195.776 322 195.776L252 195.86V364C252 379.484 239.4840000000001 392 224 392S196 379.484 196 364V195.916L126 196C120.512 196 115.528 192.808 113.26 187.824C110.964 182.784 111.86 176.932 115.444 172.816L213.304 60.704C215.964 57.652 219.8 55.9160000000001 223.832 55.9160000000001S231.7 57.652 234.388 60.6760000000001L332.528 172.5640000000001C334.7960000000001 175.1400000000001 336.0000000000001 178.4160000000001 336.0000000000001 181.7760000000001L334.7400000000001 187.5720000000001z" />
    <glyph glyph-name="arrow_left"
      unicode="&#xEA0A;"
      horiz-adv-x="448" d=" M387.212 234.528L275.212 332.528C271.096 336.112 265.2440000000001 337.0080000000001 260.204 334.74C255.192 332.472 252.0000000000001 327.488 252.0000000000001 322V252H84.0000000000001C68.5160000000001 252 56.0000000000001 239.484 56.0000000000001 224S68.5160000000001 196 84.0000000000001 196H252.0000000000001V126C252.0000000000001 120.512 255.1920000000001 115.528 260.204 113.26L266.0000000000001 112C269.3320000000001 112 272.6080000000001 113.176 275.2120000000001 115.472L387.2120000000001 213.472C390.2360000000001 216.132 392.0000000000001 219.968 392.0000000000001 224S390.2360000000001 231.868 387.2120000000001 234.528z" />
    <glyph glyph-name="arrow_right"
      unicode="&#xEA0B;"
      horiz-adv-x="448" d=" M364 252H196V322C196 327.488 192.808 332.472 187.796 334.74C182.756 337.036 176.904 336.112 172.788 332.528L60.788 234.528C57.736 231.868 56 228.032 56 224S57.736 216.132 60.788 213.472L172.788 115.472C175.392 113.176 178.668 112 182 112L187.796 113.26C192.808 115.528 196 120.512 196 126V196H364C379.4840000000001 196 392 208.516 392 224S379.4840000000001 252 364 252z" />
    <glyph glyph-name="arrow_up"
      unicode="&#xEA0C;"
      horiz-adv-x="448" d=" M332.5560000000001 275.1L234.668 387.212C232.008 390.236 228.1720000000001 392 224.14 392S216.272 390.264 213.584 387.24L115.472 275.324C113.204 272.7480000000001 112 269.472 112 266.14L113.26 260.344C115.528 255.332 120.484 252.14 126 252.14L196 252.028V84C196 68.516 208.5440000000001 56 224 56S252 68.516 252 84V251.972L321.9720000000001 251.888C327.4600000000001 251.888 332.444 255.08 334.712 260.064C337.036 265.104 336.1400000000001 270.956 332.5560000000001 275.1z" />
    <glyph glyph-name="attachment"
      unicode="&#xEA0D;"
      horiz-adv-x="448" d=" M0 103.6C0 60.704 33.32 28 77 28C102.2 28 124.04 37.072 142.8 55.496L360.36 268.8C381.36 289.94 392 314.692 392 343.28C392 401.548 345.24 448 285.88 448C256.48 448 231 437.556 209.44 416.948L40.04 250.376C38.08 248.444 37.24 246.54 37.24 244.328C37.24 238.56 52.92 223.16 58.8 223.16C61.32 223.16 63.28 223.972 65.24 225.904L234.92 392.756C249.76 406.784 266.56 413.924 285.6 413.924C325.0800000000001 413.924 356.1600000000001 382.312 356.1600000000001 343.56C356.1600000000001 324.324 349.1600000000001 307.832 334.88 293.804L117.6 80.22C105.84 68.684 92.4 62.916 77 62.916C53.2 62.916 35.56 80.22 35.56 103.6C35.56 118.72 41.44 131.908 53.2 143.444L215.88 303.156C220.64 307.552 226.24 309.764 232.68 309.764C243.6 309.764 251.44 302.064 251.44 291.3399999999999C251.44 285.572 249.2 280.084 244.44 275.128L129.64 162.4C127.68 160.468 126.84 158.564 126.84 156.352C126.84 150.584 142.8000000000001 134.904 148.68 134.904C150.9200000000001 134.904 152.8800000000001 135.716 154.84 137.648L269.6400000000001 250.348C281.4000000000001 261.6040000000001 287.2800000000001 275.1 287.2800000000001 291.312C287.2800000000001 321.2720000000001 262.9200000000001 345.1840000000001 232.4000000000001 345.1840000000001C215.88 345.1840000000001 202.16 339.4160000000001 190.68 327.88L28 168.196C9.24 150.3040000000001 0 128.6040000000001 0 103.6z" />
    <glyph glyph-name="beaker"
      unicode="&#xEA0E;"
      horiz-adv-x="448" d=" M382.2 85.428C374.4720000000001 103.2948 279.36356 238.96348 279.36356 238.96348L280.32592 332.14244C281.28352 366.42284 297.23036 374.6274 297.23036 374.6274H243.95056H232.05224H178.76768C178.76768 374.6274 194.70024 366.4231200000001 195.67212 332.14244L196.63448 238.96348C196.63448 238.96348 101.51624 103.2948 93.79804 85.428C93.79804 85.428 60.00372 27.98768 117.93964 12.0456H236.8786H239.1242H358.0584C415.99936 27.98292 382.2 85.428 382.2 85.428zM333.72724 27.90032H238.89096H237.10232H142.26604C96.06772 40.60056 123.01408 86.41472 123.01408 86.41472C129.17716 100.66532 165.78576 149.59028 165.78576 149.59028H311.98692C311.98692 149.59028 315.2629200000001 144.98736 319.97728 138.2071600000001H286.97032C283.9810400000001 138.2071600000001 281.57528 135.77704 281.57528 132.79756S283.9813200000001 127.3977600000001 286.97032 127.3977600000001H327.42836C330.69456 122.6052800000001 334.16012 117.4678400000001 337.45544 112.4373600000001H307.7438C304.7741200000001 112.4373600000001 302.33896 110.0167600000001 302.33896 107.03756S304.7741200000001 101.6377600000001 307.7438 101.6377600000001H344.3960800000001C348.24552 95.47468 351.34652 90.12332 352.8677600000001 86.6773600000001H326.44164C323.4672 86.6773600000001 321.0368000000001 84.2567600000001 321.0368000000001 81.2775600000001C321.0368000000001 78.2882800000001 323.46692 75.8777600000001 326.44164 75.8777600000001H357.65996C362.6224 61.544 365.83512 36.71696 333.72724 27.90032z M168.28392 416.0184C168.28392 398.3554500448115 182.6025700448115 384.0368 200.26552 384.0368C217.9284699551885 384.0368 232.24712 398.3554500448115 232.24712 416.0184C232.24712 433.6813499551885 217.9284699551885 448 200.26552 448C182.6025700448115 448 168.28392 433.6813499551885 168.28392 416.0184z M92.0822 310.65468C92.0822 292.9917300448115 106.4008500448115 278.6730800000001 124.0638 278.6730800000001C141.7267499551885 278.6730800000001 156.0454 292.9917300448115 156.0454 310.65468C156.0454 328.3176299551885 141.7267499551885 342.63628 124.0638 342.63628C106.4008500448115 342.63628 92.0822 328.3176299551885 92.0822 310.65468z M108.60304 394.22936C108.60304 379.8709064341691 120.2428664341691 368.23108 134.60132 368.23108C148.9597735658309 368.23108 160.5996 379.8709064341691 160.5996 394.22936C160.5996 408.5878135658309 148.9597735658309 420.22764 134.60132 420.22764C120.2428664341691 420.22764 108.60304 408.5878135658309 108.60304 394.22936z" />
    <glyph glyph-name="blog"
      unicode="&#xEA0F;"
      horiz-adv-x="448" d=" M448 168C448 217 403.368 251.132 364 252C363.132 272.132 364.812 311.08 362.964 331.156C362.46 398.02 312.144 446.068 242.284 447.972L241.276 448L134.428 447.916H133.28C91.728 447.916 58.884 435.652 35.644 411.46C21.28 396.508 2.184 370.384 0.168 328.16L0.084 185.808L0.168 176.008C0.168 127.54 8.008 92.652 32.536 66.864C56.98 41.076 93.212 28 140.112 28L143.192 28.028H306.796C348.656 28.364 384.02 42.028 409.08 67.508C434.084 92.932 448 116.368 448 168zM112 364H252C273.504 363.664 280.336 343.252 280 322C279.664 300.944 273.224 280 252 280H112C90.496 280.336 83.664 300.748 84 322C84.336 343.252 90.44 364.1960000000001 112 364zM336 112H112C90.496 112 84 132.72 84 154S90.496 196 112 196H336C357.504 196 364 175.28 364 154S357.532 112 336 112z" />
    <glyph glyph-name="bold"
      unicode="&#xEA10;"
      horiz-adv-x="448" d=" M310.8 235.2C324.8 254.8 336 280 336 308C336 369.6 285.6 420 224 420H84V28H252C313.6 28 364 78.4 364 140C364 182 341.6 215.6 310.8 235.2zM168 364H212.8C238 364 257.6 338.8 257.6 308S238 252 212.8 252H168V364zM238 84H168V196H238C263.2 196 285.6 170.8 285.6 140S263.2 84 238 84z" />
    <glyph glyph-name="calendar"
      unicode="&#xEA11;"
      horiz-adv-x="448" d=" M168 392H280V406C280 413.728 286.272 420 294 420S308 413.728 308 406V392H391.8040000000001C407.372 392 420 379.484 420 364.028V55.972C420 40.516 407.4000000000001 27.9999999999999 391.8040000000001 27.9999999999999H56.196C40.628 27.9999999999999 28 40.5159999999999 28 55.972V364.056C28 379.484 40.6 392 56.196 392H140V406C140 413.728 146.272 420 154 420S168 413.728 168 406V392zM140 336H56.196C56.028 336 56 55.972 56 55.972C56 56.028 391.8040000000001 56 391.8040000000001 56C391.9720000000001 56 392 336.0560000000001 392 336.0560000000001L336 336.028L308 336V322C308 314.2720000000001 301.728 308 294 308S280 314.2720000000001 280 322V336H168V322C168 314.2720000000001 161.728 308 154 308S140 314.2720000000001 140 322V336zM280 252H336V196H280V252zM112 168H168V112H112V168zM196 252H252V196H196V252zM112 252H168V196H112V252zM196 168H252V112H196V168zM280 168H336V112H280V168z" />
    <glyph glyph-name="carret_down"
      unicode="&#xEA12;"
      horiz-adv-x="448" d=" M224 168L112 280H336z" />
    <glyph glyph-name="carret_left"
      unicode="&#xEA13;"
      horiz-adv-x="448" d=" M168 224L280 112V336z" />
    <glyph glyph-name="carret_right"
      unicode="&#xEA14;"
      horiz-adv-x="448" d=" M280 224L168 112V336z" />
    <glyph glyph-name="carret_up"
      unicode="&#xEA15;"
      horiz-adv-x="448" d=" M224 280L112 168H336z" />
    <glyph glyph-name="check"
      unicode="&#xEA16;"
      horiz-adv-x="448" d=" M168 112C160.832 112 153.664 114.744 148.204 120.204L64.204 204.204C53.256 215.152 53.256 232.848 64.204 243.796S92.848 254.744 103.796 243.796L168 179.5919999999999L344.204 355.796C355.152 366.7439999999999 372.848 366.7439999999999 383.796 355.796S394.744 327.152 383.796 316.204L187.796 120.204C182.336 114.744 175.168 112 168 112z" />
    <glyph glyph-name="checkfill"
      unicode="&#xEA17;"
      horiz-adv-x="448" d=" M224 420C115.92 420 28 332.08 28 224S115.92 28 224 28S420 115.92 420 224S332.08 420 224 420zM187.992 112L98 201.096L134.008 236.74L188.02 183.288L313.992 308L350 272.356L187.992 112z" />
    <glyph glyph-name="cite"
      unicode="&#xEA18;"
      horiz-adv-x="448" d=" M56 224C56 146.692 118.692 84 196 84V140C149.604 140 112 177.604 112 224H196V364H56V224zM392 364H252V224C252 146.692 314.692 84 392 84V140C345.604 140 308 177.604 308 224H392V364z" />
    <glyph glyph-name="colwiz"
      unicode="&#xEA19;"
      horiz-adv-x="448" d=" M419.664 154.812C418.096 165.984 408.772 174.58 397.348 174.58C385.672 174.58 378.952 164.864 374.948 154.056C346.556 104.972 294.308 71.9039999999999 234.332 71.9039999999999C144.228 71.9039999999999 71.1479999999999 146.2439999999999 71.1479999999999 238C71.1479999999999 329.728 144.228 404.096 234.332 404.096C294.392 404.096 346.6959999999999 370.972 375.032 321.776C378 312.76 386.26 306.208 396.172 306.208C405.804 306.208 413.98 312.48 417.116 321.216C417.984 323.624 418.516 326.228 418.516 329L418.124 333.256L411.404 345.576C375.368 406.868 309.624 448 234.332 448C120.372 448 28 353.948 28 238C28 122.024 120.372 28 234.332 28C312.704 28 380.828 72.604 415.688 138.124L418.516 143.64C419.4120000000001 146.1039999999999 420.0000000000001 148.736 420.0000000000001 151.536L419.6640000000001 154.812zM170.604 173.908C183.4 170.408 198.856 172.9 210.056 182.3080000000001C219.632 190.428 225.176 202.356 233.912 211.6240000000001C233.912 211.6240000000001 242.732 223.1040000000001 254.296 214.6480000000001L255.108 214.0040000000001L257.124 212.1280000000001L258.188 211.0640000000001L258.58 210.6720000000001C266.784 201.5440000000001 272.3 190.1200000000001 281.568 182.2800000000001C292.796 172.9000000000001 308.1959999999999 170.4080000000001 321.0199999999999 173.8800000000001C338.128 178.5280000000001 348.544 194.5160000000001 357.476 212.6320000000001C366.24 228.3960000000001 370.1599999999999 239.2600000000001 376.6839999999999 251.8040000000001C387.212 272.1600000000001 362.0959999999999 291.1720000000001 351.5959999999999 271.0120000000001L348.236 264.4040000000001C344.9599999999999 257.9640000000001 341.964 250.1520000000001 338.688 242.5360000000001C332.192 229.1240000000001 324.408 217.7560000000001 311.8639999999999 217.4480000000001C290.808 216.9160000000001 282.128 247.8280000000001 264.04 257.5720000000001C257.7679999999999 260.9320000000002 252.14 261.9960000000001 246.792 261.6880000000001V261.8000000000001L246.288 261.7440000000001L245.8399999999999 261.8000000000001V261.7160000000001C240.52 262.0240000000001 234.864 260.9320000000002 228.592 257.6000000000001C210.476 247.8280000000001 200.732 211.6240000000001 179.732 212.1280000000001C158.228 212.6040000000001 151.48 250.9920000000001 141.0919999999999 271.0120000000001C130.62 291.1720000000001 105.448 272.1600000000001 116.032 251.8040000000001L118.44 246.8760000000001L116.564 250.6840000000001C130.452 222.8800000000001 145.18 180.936 170.604 173.9080000000001z" />
    <glyph glyph-name="contact"
      unicode="&#xEA1A;"
      horiz-adv-x="448" d=" M196.7 364C111.132 364 126 265.132 140 238C142.912 232.344 146.86 224.56 150.08 211.596C152.628 201.516 151.452 190.876 146.776 181.552L146.524 181.048C142.296 172.62 135.604 165.844 127.176 161.616C107.156 151.5919999999999 70.868 133.308 67.144 131.796C62.216 129.724 28 115.668 28 85.848V55.9999999999999H364V85.848C364 115.668 340.676 124.908 334.6 127.148C332.36 127.932 287.728 150.276 264.936 161.616C256.48 165.816 249.676 172.648 245.448 181.1039999999999C240.604 190.8199999999999 239.512 201.936 242.48 212.38C246.176 225.512 249.144 232.4839999999999 252 237.9999999999999C266 265.132 279.552 364 196.7 364zM196.7 336C216.72 336 223.776 328.188 227.36 322.308C240.2680000000001 301.168 232.96 262.136 227.108 250.852C222.628 242.172 219.184 232.932 215.516 219.996C210.672 202.832 212.4080000000001 184.576 220.416 168.588C227.416 154.588 238.504 143.5 252.448 136.528L267.26 129.164C321.8880000000001 101.948 322.7 101.64 324.912 100.884C334.124 97.496 336 92.428 336 85.848V83.9999999999999H56V85.848C56 93.912 67.76 101.696 77.756 105.8679999999999C81.004 107.212 91.532 112.42 128.94 131.18L139.72 136.584C153.58 143.5279999999999 164.584 154.588 171.836 169.036C179.48 184.324 181.384 201.852 177.24 218.4C173.46 233.576 168.868 243.096 164.892 250.852C159.04 262.192 151.536 301.084 164.164 321.804C167.86 327.908 175.28 336 196.7 336zM420 168H355.012C317.9120000000001 195.076 297.2200000000001 198.156 280 213.444L308.448 233.1V246.876L299.488 273.868C287.448 308.448 308 336 329.616 336C354.368 336 370.552 307.552 359.7440000000001 274.232C358.036 268.9119999999999 350.7560000000001 247.016 350.7560000000001 246.4V232.26C353.2480000000001 231.112 395.528 212.548 398.048 211.484C400.54 210.42 420.0000000000001 201.628 420.0000000000001 186.592V168z" />
    <glyph glyph-name="copy"
      unicode="&#xEA1B;"
      horiz-adv-x="448" d=" M266.05628 349.94372C266.05628 349.94372 252 364 238 364S56 364 56 364S28 364 28 336C28 296.40296 28 365.2698000000001 28 56C28 56 28 28 56 28S252 28 280 28S308 56 308 56S308 280 308 294S294 322 294 322L266.05628 349.94372zM280 252H196V336C196 336 196 350 210 350S224 336 224 336V280H280C280 280 294 280 294 266S280 252 280 252z M378 378L322.05628 433.94372C322.05628 433.94372 308 448 294 448S140 448 140 448S112 448 112 420C112 403.60236 112 405.7522 112 392C160.38316 392 255.6041600000001 392 266 392C280 392 294.05628 377.94372 294.05628 377.94372L322 350C322 350 336 336 336 322C336 311.06264 336 172.34252 336 112C348.8926 112 358.84576 112 364 112C392 112 392 140 392 140S392 336 392 350S378 378 378 378z" />
    <glyph glyph-name="cross"
      unicode="&#xEA1C;"
      horiz-adv-x="448" d=" M263.592 224L355.7960000000001 316.204C366.7440000000001 327.152 366.7440000000001 344.848 355.7960000000001 355.796S327.1520000000001 366.7440000000001 316.204 355.796L224 263.592L131.796 355.796C120.848 366.7440000000001 103.152 366.7440000000001 92.204 355.796S81.256 327.152 92.204 316.204L184.408 224L92.204 131.7960000000001C81.256 120.848 81.256 103.152 92.204 92.204C97.664 86.744 104.832 84.0000000000001 112 84.0000000000001S126.336 86.7440000000001 131.796 92.204L224 184.4080000000001L316.204 92.2040000000001C321.664 86.7440000000001 328.832 84.0000000000001 336 84.0000000000001S350.336 86.7440000000001 355.7960000000001 92.2040000000001C366.7440000000001 103.1520000000001 366.7440000000001 120.8480000000001 355.7960000000001 131.7960000000001L263.5920000000001 224.0000000000001z" />
    <glyph glyph-name="crossfill"
      unicode="&#xEA1D;"
      horiz-adv-x="448" d=" M224 420C115.92 420 28 332.08 28 224S115.92 28 224 28S420 115.92 420 224S332.08 420 224 420zM336 149.324L298.676 112L224 186.676L149.324 112L112 149.324L186.676 224L112 298.676L149.324 336L224 261.324L298.676 336L336 298.676L261.324 224L336 149.324z" />
    <glyph glyph-name="cut"
      unicode="&#xEA1E;"
      horiz-adv-x="448" d=" M380.464 132.16C368.928 152.264 351.064 165.9 332.22 171.024C317.324 175.084 301.868 173.852 288.484 166.264L252 224C280 280.084 322 335.86 336 363.916V420L224 252L112 420S98 391.944 112 363.916S168 280.084 196 224L159.516 166.292C146.16 173.852 130.676 175.112 115.78 171.052C96.88 165.928 79.044 152.292 67.508 132.188C46.844 96.012 54.74 52.584 85.092 35.196C98.56 27.468 114.128 26.208 129.164 30.296C148.008 35.448 165.9 49.056 177.408 69.132C182.448 78.008 187.796 98.224 187.88 99.064C196.42 156.436 212.576 181.776 224 196C235.452 181.776 251.58 156.4640000000001 260.092 99.064C260.176 98.2240000000001 265.496 77.98 270.536 69.1320000000001C282.044 49.056 299.964 35.42 318.808 30.2960000000001C333.816 26.208 349.412 27.44 362.88 35.196C393.26 52.5840000000001 401.128 95.984 380.464 132.1600000000001zM147.896 86.6320000000001C141.372 75.2360000000001 131.04 66.6680000000001 120.288 63.7280000000001C115.472 62.412 108.444 61.628 102.004 65.3240000000001C88.228 73.1920000000001 85.988 96.3200000000001 97.076 115.7520000000001C103.712 127.2880000000001 113.792 135.6600000000001 124.74 138.6560000000001C129.5 139.944 136.528 140.7280000000001 142.996 137.0600000000001C156.772 129.1640000000001 159.012 106.092 147.896 86.6320000000001zM346.024 65.3240000000001C339.584 61.6000000000001 332.5560000000001 62.4120000000001 327.7680000000001 63.7280000000001C316.9880000000001 66.6680000000001 306.6560000000001 75.2640000000001 300.1320000000001 86.6320000000001C289.016 106.064 291.2560000000001 129.1640000000001 305.0320000000001 137.0320000000001C311.5000000000001 140.7280000000001 318.5560000000001 139.9160000000001 323.3160000000001 138.6280000000001C334.2640000000001 135.6320000000001 344.3440000000001 127.2600000000001 350.9240000000001 115.7240000000001C362.0120000000001 96.3200000000001 359.7720000000001 73.1920000000001 346.0240000000001 65.3240000000001z" />
    <glyph glyph-name="details"
      unicode="&#xEA1F;"
      horiz-adv-x="448" d=" M420 392H28V84C28 68.544 40.544 56 56 56H378C401.184 56 420 74.816 420 98V392zM392 84H56V364H392V84zM84 308H364V280H84V308zM252 252H364V224H252V252zM252 196H364V168H252V196zM252 140H336V112H252V140zM84 252H224V112H84V252z" />
    <glyph glyph-name="download"
      unicode="&#xEA20;"
      horiz-adv-x="448" d=" M392 28H56C40.516 28 28 40.544 28 56V168C28 183.456 40.516 196 56 196S84 183.456 84 168V84H364V168C364 183.456 376.516 196 392 196S420 183.456 420 168V56C420 40.544 407.4840000000001 28 392 28zM224 168C208.516 168 196 180.544 196 196V392C196 407.456 208.516 420 224 420S252 407.456 252 392V196C252 180.544 239.4840000000001 168 224 168zM224 140C216.832 140 209.664 142.744 204.204 148.204L120.204 232.204C109.256 243.152 109.256 260.848 120.204 271.796S148.848 282.744 159.796 271.796L224 207.5919999999999L288.204 271.796C299.152 282.7439999999999 316.848 282.7439999999999 327.796 271.796S338.744 243.152 327.796 232.204L243.796 148.204C238.336 142.744 231.168 140 224 140z" />
    <glyph glyph-name="drive"
      unicode="&#xEA21;"
      horiz-adv-x="448" d=" M359.436 420H88.564C70.644 420 56 405.356 56 387.436V60.564C56 42.644 70.644 28 88.564 28H359.436C377.356 28 392 42.644 392 60.564V387.436C392 405.356 377.356 420 359.436 420zM359.436 392C361.872 392 364 389.872 364 387.4360000000001V60.564C364 58.128 361.872 56 359.436 56H88.564C86.128 56 84 58.128 84 60.564V387.436C84 389.872 86.128 392 88.564 392H359.436zM126 112C118.272 112 112 105.728 112 98S118.272 84 126 84S140 90.272 140 98S133.728 112 126 112zM312.48 183.316L345.912 149.912C351.372 144.424 351.372 135.576 345.912 130.088C340.424 124.6280000000001 331.576 124.6280000000001 326.088 130.088L292.684 163.52C273.7 148.792 249.872 140 224 140C162.148 140 112 190.148 112 252S162.148 364 224 364S336 313.852 336 252C336 226.128 327.208 202.3 312.48 183.316zM292.432 203.364C302.2320000000001 217.084 308 233.884 308 252C308 298.312 270.312 336 224 336S140 298.312 140 252S177.688 168 224 168C242.116 168 258.916 173.768 272.636 183.5680000000001L256.088 200.088C250.628 205.576 250.628 214.424 256.088 219.912C261.576 225.3720000000001 270.4240000000001 225.3720000000001 275.9120000000001 219.912L292.432 203.364zM224 280C208.544 280 196 267.456 196 252S208.544 224 224 224S252 236.544 252 252S239.456 280 224 280z" />
    <glyph glyph-name="elbow_left"
      unicode="&#xEA22;"
      horiz-adv-x="448" d=" M387.212 234.528L275.212 332.528C272.608 334.7960000000001 269.332 336 266 336L260.204 334.74C255.192 332.472 252 327.488 252 322V252H140C106.232 252 56 229.628 56 168V84C56 68.516 68.544 56 84 56S112 68.516 112 84V168C112 190.5680000000001 127.4 195.664 140 196H252V126C252 120.512 255.192 115.528 260.204 113.26C265.244 110.964 271.096 111.888 275.212 115.472L387.212 213.472C390.236 216.132 392 219.968 392 224S390.236 231.868 387.212 234.528z" />
    <glyph glyph-name="elbow_right"
      unicode="&#xEA23;"
      horiz-adv-x="448" d=" M308 252H196V322C196 327.488 192.808 332.472 187.796 334.74C182.756 337.036 176.904 336.112 172.788 332.528L60.788 234.528C57.736 231.868 56 228.032 56 224S57.736 216.132 60.788 213.472L172.788 115.472C175.392 113.176 178.668 112 182 112L187.796 113.26C192.808 115.528 196 120.512 196 126V196H307.664C320.6 195.664 336 190.568 336 168V84C336 68.516 348.544 56 364 56S392 68.516 392 84V168C392 229.628 341.768 252 308 252z" />
    <glyph glyph-name="email"
      unicode="&#xEA24;"
      horiz-adv-x="448" d=" M387.632 364H60.368C42.532 364 28 349.468 28 331.632V116.368C28 98.532 42.532 84 60.368 84H387.632C405.468 84 420 98.532 420 116.368V331.632C420 349.468 405.468 364 387.632 364zM224 214.2L77.868 336H370.132L224 214.2zM142.296 245.896L56 148.82V317.772L142.296 245.896zM163.8 227.948L224 177.8L276.192 221.284L374.556 111.9999999999999H60.732L163.8 227.948zM297.724 239.2320000000001L392 317.772V134.484L297.724 239.2320000000001z" />
    <glyph glyph-name="enter"
      unicode="&#xEA25;"
      horiz-adv-x="448" d=" M308 168H196V98C196 92.512 192.808 87.528 187.796 85.26C182.756 82.964 176.904 83.888 172.788 87.472L60.788 185.472C57.736 188.1320000000001 56 191.968 56 196S57.736 203.868 60.788 206.528L172.788 304.528C175.392 306.824 178.668 308 182 308L187.796 306.74C192.808 304.472 196 299.488 196 294V224H307.664C320.6 224 336 229.432 336 252V336C336 351.484 348.544 364 364 364S392 351.484 392 336V252C392 190.372 341.768 168 308 168z" />
    <glyph glyph-name="equation"
      unicode="&#xEA26;"
      horiz-adv-x="448" d=" M312.144 115.276C300.58 91.42 269.164 91.896 219.464 91.896H96.712L224.196 242.116L72.8559999999999 393.204H265.16C298.172 393.204 305.144 392.8400000000001 315.56 382.452L322 364H336.728L328.608 448H0V369.096L142.1 227.192L0 50.624V27.972H320.04L350 140H333.704L312.144 115.276zM418.6280000000001 172.5920000000001C379.204 172.0600000000001 400.9040000000001 244.3560000000001 401.1840000000001 304.9200000000001L448 304.6400000000001L447.748 335.6080000000001C253.148 336.5600000000001 277.844 340.5080000000001 252 276.4160000000001L259.1400000000001 275.8560000000001C266.5600000000001 284.5360000000001 269.444 310.2120000000001 313.096 305.2000000000001C311.5 195.2440000000001 264.9640000000001 183.6520000000001 267.876 161.112C268.94 148.316 278.712 140.4760000000001 289.2960000000001 140.028C322.7 141.204 321.216 187.88 331.604 305.48H374.724C372.428 264.0120000000001 366.184 222.5720000000001 365.456 181.944C365.988 154.924 381.864 140.4760000000001 402.752 140.3080000000001C437.164 139.076 448 180.6280000000001 448 198.352H440.58C439.88 183.7360000000001 433.104 173.2360000000001 418.628 172.5920000000001z" />
    <glyph glyph-name="event"
      unicode="&#xEA27;"
      horiz-adv-x="448" d=" M179.704 62.524L141.428 141.148C138.796 146.5800000000001 140.896 152.824 146.188 155.12L172.536 166.4880000000001C177.772 168.7280000000001 184.184 166.124 186.844 160.7480000000001C213.892 109.032 256.2 108.5840000000001 261.1 97.6360000000001C263.816 92.2600000000001 261.632 85.96 256.396 83.72L193.956 56.84C188.776 54.544 182.336 57.12 179.704 62.524zM420 224L286.664 232.764L218.792 203.504L159.852 324.492L227.024 353.444L310.352 448L420 224zM34.468 197.12C18.172 230.524 33.74 270.0600000000001 69.272 285.3760000000001L143.08 317.2680000000001L202.02 196.252L128.156 164.36C92.68 149.044 50.708 163.772 34.468 197.12z" />
    <glyph glyph-name="external"
      unicode="&#xEA28;"
      horiz-adv-x="448" d="" />
    <glyph glyph-name="facebook"
      unicode="&#xEA29;"
      horiz-adv-x="448" d=" M337.5590400000001 224H254.26296V0H158.263V224H112V297.28188H158.263V344.87488C158.263 409.54592 186.15912 448 262.19788 448H349.81996V368.71492H278.25504C257.01396 368.74992 254.37888 357.63896 254.37888 336.959L254.26296 297.28188H350.26292L337.5590400000001 224z" />
    <glyph glyph-name="folder"
      unicode="&#xEA2A;"
      horiz-adv-x="448" d=" M392 364H236.628C214.2 364 196.028 382.2 196.056 404.628C196 420 180.572 420 180.572 420H43.512C34.972 420 28 413.028 28 404.488V112.868S28 84 56 84H392C420 84 420 112.448 420 112.448V336C420 363.552 392 364 392 364z" />
    <glyph glyph-name="globe"
      unicode="&#xEA2B;"
      horiz-adv-x="448" d=" M224 448C115.78 448 28 360.248 28 252C28 143.78 115.78 56 224 56S420 143.78 420 252C420 360.248 332.2200000000001 448 224 448zM306.88 191.716C306.88 188.664 305.788 183.848 304.528 181.048L290.1640000000001 150.864C288.8760000000001 148.064 285.9080000000001 144.116 283.6960000000001 141.96L237.1320000000001 98.476C234.92 96.376 235.5360000000001 94.64 238.6160000000001 94.64H243.9360000000001C246.9880000000001 94.64 249.4520000000001 92.5119999999999 249.4520000000001 89.768C249.4520000000001 87.052 246.9880000000001 84.896 243.9360000000001 84.896H221.06C217.98 84.896 215.376 87.36 215.376 90.412V149.968C215.376 153.076 217.98 155.624 221.06 155.624H227.3880000000001C230.4680000000001 155.624 232.9880000000001 158.116 232.9880000000001 161.2239999999999V167.5799999999999C232.9880000000001 170.632 230.4400000000001 173.208 227.3880000000001 173.208H221.0600000000001C217.9800000000001 173.208 215.3760000000001 175.6719999999999 215.3760000000001 178.752V213.724C215.3760000000001 216.776 212.9120000000001 219.296 209.8320000000001 219.296H200.3960000000001C197.316 219.296 192.7240000000001 220.808 190.1480000000001 222.544L160.0480000000001 243.852C157.5840000000001 245.644 154.1680000000001 249.228 152.6000000000001 251.916L138.4880000000001 275.856C136.948 278.516 133.1400000000001 280.6719999999999 130.06 280.6719999999999H123.3680000000001C120.2880000000001 280.6719999999999 116.6200000000001 282.94 115.3320000000001 285.74L99.008 319.564C97.692 322.336 96.6 327.1239999999999 96.6 330.204V349.524C96.6 352.576 94.136 354.368 91.2520000000001 353.472L84.644 351.428C113.0920000000001 391.188 158.0320000000001 418.264 209.44 422.632V399.336C209.44 396.256 211.5400000000001 392.28 214.0040000000001 390.516L224.56 383.18C227.024 381.416 231.588 379.9599999999999 234.724 379.9599999999999H242.9560000000001C246.0360000000001 379.9599999999999 248.6680000000001 377.916 248.6680000000001 375.424S246.7920000000001 369.068 244.7760000000001 366.856L232.7920000000001 354.256C230.6920000000001 352.016 231.4480000000001 350.168 234.528 350.168L242.5640000000001 350.14C245.6160000000001 350.14 248.1080000000001 347.62 248.1080000000001 344.54L248.0520000000001 324.4359999999999C248.0520000000001 321.356 250.6 318.808 253.6520000000001 318.808H262.668C265.748 318.808 268.212 316.904 268.212 314.524C268.212 312.2 265.7480000000001 310.268 262.668 310.268H235.032C231.98 310.268 227.5 308.728 224.98 306.88L213.724 298.284C211.204 296.436 209.272 292.376 209.272 289.296V255.864C209.272 252.756 206.752 250.236 203.672 250.236H202.076C199.024 250.236 196.56 252.756 196.56 255.864V275.072C196.56 278.152 193.956 280.7 190.904 280.7H175.812C172.76 280.7 170.212 278.18 170.212 275.072L170.128 259.56C170.128 256.48 172.088 252.392 174.412 250.432L196.7 232.568C199.164 230.636 203.588 229.04 206.696 229.04L243.964 229.012C247.044 229.012 251.748 227.836 254.464 226.436L301.896 201.684C304.668 200.2 306.88 196.532 306.88 193.452V191.716zM292.516 359.492C290.024 357.7 285.432 356.216 282.38 356.216H280.028C276.9480000000001 356.216 274.3440000000001 358.708 274.3440000000001 361.76V379.96C274.3440000000001 383.04 271.9080000000001 385.588 268.8000000000001 385.588H260.6800000000001C257.6000000000001 385.588 255.1360000000001 388.108 255.1360000000001 391.188V420.364C281.9320000000001 415.436 306.5440000000001 404.292 327.4600000000001 388.416C326.7600000000001 386.036 292.5160000000001 359.492 292.5160000000001 359.492z" />
    <glyph glyph-name="google"
      unicode="&#xEA2C;"
      horiz-adv-x="448" d=" M224 0C100.8 0 0 100.8 0 224S100.8 448 224 448C284.48 448 333.76 425.6 374.08 389.76L309.12 324.8C286.72 347.2 257.6 358.4 224 358.4C150.08 358.4 91.84 295.68 91.84 224C91.84 152.32 150.08 89.6 224 89.6C291.2 89.6 336 127.68 344.9600000000001 181.44H224V268.8H434.56C436.8 253.12 439.04 235.2 439.04 219.52C439.04 92.3439999999999 354.592 0.728 225.512 0H224z" />
    <glyph glyph-name="googleplus"
      unicode="&#xEA2D;"
      horiz-adv-x="448" d=" M0.364 67.508L0.112 70.84L0.364 67.508zM103.208 200.732C143.472 199.556 170.464 241.304 163.52 294.028C156.576 346.724 118.3 389.032 78.036 390.236C37.772 391.44 10.78 351.092 17.724 298.3680000000001C24.668 245.644 62.944 201.936 103.208 200.732zM448 336V373.324C448 414.4000000000001 414.4000000000001 448 373.324 448H74.676C34.3 448 1.176 415.5200000000001 0.056 375.396C25.592 397.88 61.012 416.668 97.552 416.668H253.848L218.876 387.072H169.316C202.188 374.472 219.716 336.2800000000001 219.716 297.0800000000001C219.716 264.1520000000001 201.432 235.8440000000001 175.588 215.712C150.332 196.084 145.572 187.852 145.572 171.136C145.572 156.884 172.592 132.636 186.704 122.668C228.004 93.548 241.36 66.528 241.36 21.42C241.36 14.224 240.464 7.056 238.7 0H373.324C414.4 0 448 33.572 448 74.676V308H364V224H336V308H252V336H336V420H364V336H448zM81.34 112.896L108.444 113.148C96.572 124.656 87.164 138.7960000000001 87.164 156.184C87.164 166.516 90.468 176.456 95.088 185.276L80.584 184.856C48.048 184.856 20.44 195.412 0 212.8V95.116C23.38 106.232 51.128 112.896 81.34 112.896zM1.484 59.836L0.364 67.116L1.484 59.836zM199.248 31.136C192.668 56.868 169.288 69.608 136.724 92.204C124.88 96.0119999999999 111.832 98.28 97.832 98.42C58.632 98.84 22.092 83.132 1.484 59.752C8.484 25.732 38.724 0 74.676 0H200.004C200.788 4.872 201.18 9.912 201.18 15.064C201.18 20.552 200.508 25.9 199.248 31.136z" />
    <glyph glyph-name="group"
      unicode="&#xEA2E;"
      horiz-adv-x="448" d=" M224.7 364C139.132 364 154 265.132 168 238C170.912 232.344 174.832 224.56 178.08 211.596C180.628 201.516 179.452 190.876 174.776 181.552L174.524 181.048C170.324 172.62 163.604 165.844 155.176 161.616C135.156 151.5919999999999 98.868 133.308 95.144 131.796C90.216 129.724 56 115.668 56 85.848V55.9999999999999H392V85.848C392 115.668 368.676 124.908 362.572 127.148C360.332 127.932 315.728 150.276 292.936 161.616C284.452 165.816 277.676 172.648 273.448 181.1039999999999C268.604 190.8199999999999 267.512 201.936 270.48 212.38C274.176 225.512 277.144 232.4839999999999 280 237.9999999999999C294 265.132 307.552 364 224.7 364zM224.7 336C244.72 336 251.804 328.188 255.36 322.308C268.2400000000001 301.168 260.9600000000001 262.136 255.108 250.852C250.628 242.172 247.1840000000001 232.932 243.516 219.996C238.6720000000001 202.832 240.408 184.576 248.4160000000001 168.588C255.4160000000001 154.588 266.5040000000001 143.5 280.4480000000001 136.528L295.2600000000001 129.164C349.8880000000001 101.948 350.7000000000001 101.64 352.9120000000001 100.884C362.1240000000001 97.496 364.0000000000001 92.428 364.0000000000001 85.848V83.9999999999999H84.0000000000001V85.848C84.0000000000001 93.912 95.7600000000001 101.696 105.7560000000001 105.8679999999999C109.0040000000001 107.212 119.5320000000001 112.42 156.9400000000001 131.18L167.7200000000001 136.584C181.5800000000001 143.5279999999999 192.5840000000001 154.588 199.8360000000001 169.036C207.4800000000001 184.324 209.3840000000001 201.852 205.2400000000001 218.4C201.4600000000001 233.576 196.8680000000001 243.096 192.8920000000001 250.852C187.0400000000001 262.192 179.5360000000001 301.084 192.1640000000001 321.804C195.8600000000001 327.908 203.2800000000001 336 224.7000000000001 336zM448 168H383.012C345.9120000000001 195.076 325.2200000000001 198.156 308 213.444L336.448 233.1V246.876L327.488 273.868C315.448 308.448 336 336 357.616 336C382.368 336 398.552 307.552 387.7440000000001 274.232C386.036 268.9119999999999 378.7560000000001 247.016 378.7560000000001 246.4V232.26C381.2480000000001 231.112 423.528 212.548 426.048 211.484C428.54 210.42 448 201.628 448 186.592V168zM0 186.592C0 201.628 19.46 210.42 21.952 211.484C24.472 212.548 66.752 231.112 69.244 232.26V246.4C69.244 247.016 61.964 268.912 60.256 274.232C49.448 307.552 65.632 336 90.384 336C112 336 132.552 308.448 120.512 273.868L111.552 246.876V233.1L140 213.4439999999999C122.78 198.156 102.088 195.0759999999999 64.988 168H0V186.5919999999999z" />
    <glyph glyph-name="help"
      unicode="&#xEA2F;"
      horiz-adv-x="448" d=" M224 420C115.92 420 28 332.08 28 224S115.92 28 224 28S420 115.92 420 224S332.08 420 224 420zM252 84H196V252H252V84zM252 308H196V364H252V308z" />
    <glyph glyph-name="home"
      unicode="&#xEA30;"
      horiz-adv-x="448" d=" M28.084 223.86C0.084 195.86 28.084 195.86 28.084 195.86H84.084V55.86S84.084 27.86 112.084 27.86H168.084C196.084 27.86 196.084 55.86 196.084 55.86V139.86S196.056 167.86 224.084 167.86C252.056 167.86 252.084 139.86 252.084 139.86V55.86S252.084 27.86 280.084 27.86H336.084C364.084 27.86 364.084 55.86 364.084 55.86V195.86H420.084S448.084 195.86 420.0560000000001 223.888L252.112 391.832C224.392 419.552 224.0840000000001 419.888 196.0560000000001 391.86L28.0840000000001 223.86zM336.084 335.86L392.084 279.86V349.86C392.084 363.86 378.084 363.86 378.084 363.86H350.084S336.084 363.86 336.084 349.86V335.86z" />
    <glyph glyph-name="idea"
      unicode="&#xEA31;"
      horiz-adv-x="448" d=" M223.804 337.7920000000001C175.392 337.7920000000001 136.136 296.212 136.136 244.888C136.136 228.004 140.616 212.296 147.812 198.52C169.344 157.416 175.056 156.436 178.556 134.12C181.496 115.388 185.584 133.168 198.94 133.168H248.64C261.996 133.168 266.084 115.416 269.024 134.12C272.524 156.464 278.236 157.416 299.768 198.52C306.992 212.296 311.444 228.004 311.444 244.888C311.472 296.212 272.216 337.792 223.804 337.792zM260.512 112H187.488C184.464 112 182 109.648 182 106.736V103.236C182 100.324 184.464 97.972 187.488 97.972H260.54C263.564 97.972 266.028 100.324 266.028 103.236V106.736C266 109.648 263.536 112 260.512 112zM248.36 84H199.64C197.6520000000001 84 196 81.648 196 78.736V75.236C196 72.352 197.6520000000001 70 199.64 70H248.36C250.376 70 252.0000000000001 72.352 252.0000000000001 75.236V78.736C252.0000000000001 81.648 250.3760000000001 84 248.36 84zM224.0000000000001 28C237.0760000000001 28 252.0000000000001 39.2 252.0000000000001 56H196.0000000000001C196.0000000000001 39.2 210.9240000000001 28 224.0000000000001 28zM324.4360000000001 403.116L324.4640000000001 403.2C332.444 418.012 310.856 431.34 302.8200000000001 416.528L268.0720000000001 352.7440000000001L289.7720000000001 339.472L324.4360000000001 403.116zM373.3240000000001 351.288H373.2680000000001L315.028 315.644L327.5720000000001 292.6560000000001L385.9240000000001 328.356C399.868 336.868 387.3240000000001 359.772 373.3240000000001 351.288zM236.796 435.148C236.796 452.256 211.7360000000001 452.256 211.7360000000001 435.148V364.336H236.796V435.148zM123.564 403.144L158.256 339.472L179.9560000000001 352.7440000000001L145.2080000000001 416.528C137.144 431.3400000000001 115.528 418.012 123.5360000000001 403.2000000000001L123.5640000000001 403.144zM74.704 351.288C60.676 359.772 48.132 336.868 62.104 328.328L120.4560000000001 292.6280000000001L133.0000000000001 315.616L74.7040000000001 351.288z" />
    <glyph glyph-name="indent"
      unicode="&#xEA32;"
      horiz-adv-x="448" d=" M112 140L196 210L112 280V224H56V196H112zM56 364H392V308H56zM224 280H392V224H224zM224 196H392V140H224zM56 112H392V56H56z" />
    <glyph glyph-name="invite"
      unicode="&#xEA33;"
      horiz-adv-x="448" d=" M448 280V336H392V392H336V336H280V280H336V224H392V280H448z M334.6 161.504C331.66 162.484 240.464 201.5720000000001 235.9 203.644V229.292L236.936 234.892L239.3160000000001 242.9L242.6200000000001 253.12C246.8200000000001 261.044 250.0680000000001 269.948 252.4480000000001 279.776C254.8840000000001 289.716 256.1440000000001 300.104 256.1440000000001 311.0800000000001C256.1440000000001 325.948 254.5480000000001 338.632 251.4680000000001 348.88C248.276 359.24 243.9920000000001 367.5560000000001 238.5600000000001 373.94C233.1560000000001 380.296 226.8280000000001 384.86 219.6600000000001 387.716C212.5200000000001 390.572 204.8480000000001 392 196.728 392C188.524 392 180.768 390.516 173.5440000000001 387.632C166.4040000000001 384.7200000000001 160.1040000000001 380.016 154.7840000000001 373.576C149.4080000000001 367.164 145.1520000000001 358.82 142.016 348.572C138.964 338.324 137.368 325.8640000000001 137.368 311.0800000000001C137.368 299.8240000000001 138.628 289.2120000000001 141.036 279.1320000000001C143.472 269.136 146.86 260.2040000000001 151.06 252.308L154.112 242.9000000000001L156.212 235.508L157.584 230.132V205.156C153.104 203.084 72.128 168 67.144 166.012C62.216 163.968 28 150.332 28 121.2960000000001V84H364.0000000000001V121.2960000000001C364.0000000000001 150.332 340.6760000000001 159.3200000000001 334.6 161.504z" />
    <glyph glyph-name="ios"
      unicode="&#xEA34;"
      horiz-adv-x="812" d=" M646.38 28C609.028 28 566.9159999999999 37.94 544.04 52.192L540.96 54.068L541.912 57.54L557.1999999999999 113.204L558.8799999999999 119.3080000000001L564.3399999999999 116.088C583.016 105.084 615.5519999999999 93.2960000000001 650.776 93.2960000000001C689.4159999999999 93.2960000000001 712.4599999999999 110.2360000000001 712.4599999999999 138.6280000000001C712.4599999999999 163.436 695.7159999999999 178.752 650.7479999999999 195.16C581.4479999999999 219.912 547.7639999999999 256.3680000000001 547.7639999999999 306.6C547.7639999999999 371.7560000000001 603.3439999999998 417.2840000000001 682.9479999999999 417.2840000000001C726.6559999999998 417.2840000000001 756.0279999999998 406.896 772.9679999999998 398.1880000000001L776.5519999999999 396.3680000000001L775.4319999999999 392.5320000000001L759.6119999999999 338.492L757.9319999999999 332.8640000000001L752.7239999999999 335.552C737.8559999999999 343.2800000000001 713.4399999999999 352.4640000000001 681.3519999999999 352.4640000000001C640.2199999999998 352.4640000000001 625.632 331.2680000000001 625.632 313.124C625.632 287.4200000000001 645.4839999999999 275.576 692.8879999999999 257.0960000000001C760.312 231.7840000000001 790.3559999999999 196.7000000000001 790.3559999999999 143.528C790.3279999999999 90.244 752.6399999999999 28 646.3799999999999 28zM329.532 28C226.8 28 155.064 106.932 155.064 219.912C155.064 336.448 229.04 417.816 334.992 417.816C439.656 417.816 509.992 340.9 509.992 226.464C509.992 105.8679999999999 439.152 28 329.532 28zM332.8080000000001 354.144C273.784 354.144 235.648 302.064 235.648 221.536C235.648 143.8639999999999 274.708 91.672 332.8080000000001 91.672C390.6 91.672 429.4080000000001 144.928 429.4080000000001 224.252C429.4080000000001 286.832 399.1960000000001 354.144 332.8080000000001 354.144zM108.612 33.992H31.808V309.3160000000001H108.612V33.992zM69.9160000000001 337.7920000000001C46.032 337.7920000000001 28 355.348 28 378.616C28 402.612 45.836 420 70.4480000000001 420C94.8360000000001 420 112.2800000000001 403.06 112.9520000000001 378.756C112.9520000000001 354.928 94.8640000000001 337.7920000000001 69.9160000000001 337.7920000000001z" />
    <glyph glyph-name="italic"
      unicode="&#xEA35;"
      horiz-adv-x="448" d=" M392 420V392H336L196 56H252V28H56V56H112L252 392H196V420H392z" />
    <glyph glyph-name="key"
      unicode="&#xEA36;"
      horiz-adv-x="448" d=" M382.63736 230.20312C432.4541200000001 280.0240800000001 432.4541200000001 360.8038 382.63736 410.63736C332.8038 460.45412 252.02408 460.45412 202.20732 410.63736C161.81956 370.2412 154.18396 309.51284 179.27924 261.4178L0 84V28H84V70H140V112L151.37836 125.23952H194.52552V168.39928L233.40968 207.27084C281.50444 182.17556 342.2454 189.81116 382.63736 230.20312zM346.94828 307.8922C328.42068 289.36908 298.41196 289.36908 279.89948 307.8922C261.36712 326.39544 261.36712 356.4148 279.89948 374.93764C298.4072 393.44088 328.41592 393.44088 346.94828 374.93764C365.4462000000001 356.4148 365.4462000000001 326.40048 346.94828 307.8922z" />
    <glyph glyph-name="key_line"
      unicode="&#xEA37;"
      horiz-adv-x="448" d=" M165.508 381.304C117.152 332.948 114.352 256.984 155.932 204.708L33.208 92.904C29.148 89.236 26.88 83.244 28.532 78.624L28.784 78.4L79.352 28L99.008 47.6L63.616 82.796L101.78 117.572L163.268 55.9999999999999L182.84 75.572L122.304 136.2479999999999L175.588 184.7439999999999C227.864 141.7639999999999 304.976 144.0879999999999 353.808 192.976C405.804 244.972 405.804 329.308 353.808 381.3039999999999C301.812 433.3 217.504 433.3 165.508 381.3039999999999zM334.04 212.94C293.076 171.948 226.632 171.948 185.64 212.94C144.676 253.904 144.676 320.348 185.64 361.3400000000001C226.632 402.3040000000001 293.076 402.3040000000001 334.04 361.3400000000001C375.004 320.348 375.004 253.904 334.04 212.94z" />
    <glyph glyph-name="library"
      unicode="&#xEA38;"
      horiz-adv-x="448" d=" M252 420H84.56C68.796 420 56 407.204 56 391.44V56.56C56 40.796 68.796 28 84.56 28H335.44C351.204 28 364 40.7960000000001 364 56.56V308L252 420zM84 56V392H224V280H336V56H84zM126 84H294C301.728 84 308 90.272 308 98S301.728 112 294 112H126C118.272 112 112 105.728 112 98S118.272 84 126 84zM126 140H294C301.728 140 308 146.272 308 154S301.728 168 294 168H126C118.272 168 112 161.728 112 154S118.272 140 126 140zM126 196H294C301.728 196 308 202.272 308 210S301.728 224 294 224H126C118.272 224 112 217.728 112 210S118.272 196 126 196zM252 308V392L336 308H252z" />
    <glyph glyph-name="link"
      unicode="&#xEA39;"
      horiz-adv-x="448" d=" M387.352 257.712L308.504 178.892C264.992 135.352 194.376 135.352 150.864 178.892C144.0320000000001 185.724 138.656 193.424 133.952 201.376L170.576 238L176.512 241.948C179.032 233.296 183.456 225.092 190.26 218.288C211.988 196.532 247.352 196.56 269.08 218.288L347.9 297.108C369.656 318.864 369.656 354.2 347.9 375.928C326.172 397.656 290.836 397.656 269.08 375.928L241.08 347.872C218.344 356.748 193.844 359.128 169.988 355.628L229.712 415.352C273.252 458.8919999999999 343.8400000000001 458.8919999999999 387.38 415.352C430.8920000000001 371.812 430.8920000000001 301.224 387.3520000000001 257.712zM178.92 128.1L150.864 100.044C129.136 78.316 93.772 78.316 72.044 100.044C50.316 121.8 50.316 157.136 72.044 178.892L150.864 257.712C172.62 279.468 207.956 279.468 229.684 257.712C236.46 250.908 240.884 242.732 243.46 234.08L249.396 238L286.02 274.6239999999999C281.344 282.604 275.94 290.276 269.08 297.108C225.568 340.6479999999999 154.952 340.6479999999999 111.44 297.108L32.648 218.2879999999999C-10.892 174.7479999999999 -10.892 104.16 32.648 60.62C76.188 17.1079999999999 146.776 17.1079999999999 190.288 60.62L250.04 120.372C226.156 116.872 201.656 119.252 178.92 128.0999999999999z" />
    <glyph glyph-name="linkedin"
      unicode="&#xEA3A;"
      horiz-adv-x="448" d=" M0 398.27032C0 412.68472 5.04504 424.5766 15.13512 433.94596S38.34236 448 54.4866 448C70.34244 448 83.1712 443.38728 92.97288 434.16212C103.06296 424.64856 108.108 412.25212 108.108 396.97308C108.108 383.1352 103.20716 371.60368 93.4052 362.37852C83.3154 352.86496 70.05404 348.10804 53.62168 348.10804H53.18908C37.33324 348.10804 24.50448 352.86468 14.70252 362.37824S0 383.85592 0 398.27032zM5.62156 19.89176V308.75684H101.62152V19.89204H5.62156zM154.81088 19.89176H250.81084V181.18912C250.81084 191.2792 251.96388 199.06292 254.27024 204.54056C258.30616 214.34224 264.43228 222.63052 272.6486000000001 229.4054C280.8649200000001 236.18028 291.17116 239.56744 303.5676000000001 239.56744C335.8558000000001 239.56744 352.00004 217.80164 352.00004 174.27004V19.89176H448V185.51344C448 228.18012 437.90992 260.54056 417.72976 282.59448C397.5496 304.6484 370.8829600000001 315.67564 337.72984 315.67564C300.54052 315.67564 271.5678000000001 299.6756 250.81084 267.67552V266.8106H250.37852L250.81084 267.67552V308.75684H154.81088C155.3874 299.5314 155.6758 270.8468000000001 155.6758 222.70276S155.3874 106.95496 154.81088 19.89176z" />
    <glyph glyph-name="linux"
      unicode="&#xEA3B;"
      horiz-adv-x="448" d=" M232.764 448C188.972 448 163.268 421.288 158.424 385.252C153.5800000000001 349.2440000000001 161.364 342.636 149.2400000000001 305.7320000000001C137.1160000000001 268.856 82.74 205.632 84.028 147.28C84.42 129.108 86.52 113.372 90.16 99.624C94.612 107.044 101.248 112.2520000000001 106.064 114.4920000000001L112.504 117.376L113.96 124.6280000000001C115.164 130.3680000000001 119.728 139.384 127.568 145.292L127.344 150.7240000000001C126.448 195.9720000000001 173.236 245.0000000000001 181.832 273.6160000000001C190.428 302.2320000000001 186.704 305.1720000000001 188.104 312.2840000000001C189.532 319.3960000000001 195.02 327.6840000000001 202.916 334.2640000000001L205.156 335.1880000000001C212.352 335.2440000000001 219.548 309.0640000000001 233.464 309.0360000000001C247.408 309.0360000000001 254.66 340.9840000000001 262.668 334.2640000000001C270.564 327.6840000000001 276.052 319.3960000000001 277.452 312.2840000000001C278.88 305.1720000000001 275.128 302.2320000000001 283.752 273.6160000000001C292.348 245.0000000000001 339.08 195.9720000000001 338.184 150.7240000000001L337.9600000000001 145.3480000000001C345.8280000000001 139.4400000000001 350.42 130.3960000000001 351.596 124.6280000000001L353.0800000000001 117.376L359.5200000000001 114.436C364.3360000000001 112.196 370.9160000000001 106.9880000000001 375.3680000000001 99.5960000000001C379.0360000000001 113.3440000000001 381.1640000000001 129.0800000000001 381.5560000000001 147.28C382.8160000000001 205.632 328.4120000000001 268.856 316.2880000000001 305.7320000000001C304.1640000000001 342.636 312.0040000000001 349.2440000000001 307.1600000000001 385.2520000000001C302.3160000000001 421.288 276.5560000000001 448.0000000000001 232.7640000000001 448.0000000000001zM146.72 135.716L140.42 134.148C125.552 128.016 132.076 115.136 125.58 106.988C119.084 98.84 106.008 102.76 101.92 86.1C97.804 69.4399999999999 160.944 -12.3480000000001 194.908 1.624C228.872 15.596 216.244 118.16 201.6 127.092C186.956 136.052 180.488 124.068 170.128 125.272C161.392 126.3080000000001 156.856 136.304 146.72 135.716zM317.744 135.716C308.3639999999999 135.548 303.8 126.252 295.4 125.272C285.04 124.0680000000001 278.572 136.052 263.928 127.092C249.284 118.16 236.656 15.5959999999999 270.62 1.624C304.584 -12.348 367.724 69.44 363.608 86.1C359.5199999999999 102.76 346.5 98.84 340.004 106.988C333.508 115.136 340.032 128.016 325.164 134.148C322.364 135.2960000000001 319.928 135.744 317.744 135.716zM230.944 35.42C230.188 30.6320000000001 229.208 25.928 227.892 21.3920000000001C225.764 13.972 222.684 6.58 218.064 0.252C222.852 -0.056 227.752 -0.084 232.764 0.14C237.776 -0.084 242.676 -0.056 247.464 0.252C242.844 6.58 239.764 13.972 237.636 21.3920000000001C236.32 25.9280000000001 235.3399999999999 30.6320000000001 234.584 35.42L232.764 35.364L230.944 35.42z" />
    <glyph glyph-name="lock"
      unicode="&#xEA3C;"
      horiz-adv-x="448" d=" M336 252V308C336 369.85676 285.85676 420 224 420S112 369.85676 112 308V252H84V55.46688C84 38.96816 95.50324 28 112 28H336C352.49676 28 364 38.96816 364 55.46688V252H336zM168 308C168 338.92908 193.0726 364 224 364S280 338.92908 280 308V252H168V308z" />
    <glyph glyph-name="logo"
      unicode="&#xEA3D;"
      horiz-adv-x="1479.7575757575758" d=" M662.8092121212121 169.0181818181818C659.6053333333334 162.9362424242424 654.7316363636364 157.1393939393939 648.1745454545454 151.6276363636364C641.6174545454546 146.1294545454545 633.3633939393939 141.6901818181818 623.3987878787879 138.3369696969697S602.2070303030303 133.3003636363637 589.7309090909091 133.3003636363637C563.1903030303031 133.3003636363637 542.4736969696969 141.0385454545455 527.5810909090909 156.5149090909092C512.6749090909091 171.977696969697 505.2353939393939 192.7214545454546 505.2353939393939 218.7326060606061C505.2353939393939 236.3675151515152 508.642909090909 251.9389090909091 515.4579393939393 265.4739393939394C522.2729696969697 278.9953939393939 532.1425454545454 289.462303030303 545.0395151515152 296.8610909090909C557.9364848484848 304.2598787878788 573.3585454545454 307.9524848484849 591.2921212121212 307.9524848484849C602.4242424242424 307.9524848484849 612.6196363636362 306.323393939394 621.9054545454545 303.0787878787879C631.1912727272727 299.8206060606061 639.0516363636362 295.625696969697 645.5001212121211 290.4804848484848C651.948606060606 285.3488484848485 656.876606060606 279.8642424242425 660.297696969697 274.0402424242424C663.7052121212121 268.2162424242424 665.4021818181818 262.7995151515152 665.4021818181818 257.7629090909091C665.4021818181818 252.617696969697 663.4879999999999 248.2598787878788 659.6596363636363 244.7030303030303C655.8312727272727 241.1326060606061 651.1883636363635 239.3541818181818 645.7444848484848 239.3541818181818C642.1740606060606 239.3541818181818 639.2145454545454 240.2637575757576 636.8523636363635 242.1100606060606C634.4901818181818 243.9427878787879 631.8429090909091 246.902303030303 628.8969696969697 250.9886060606061C623.6567272727272 258.9711515151515 618.1721212121212 264.9444848484849 612.4567272727272 268.9357575757575C606.7413333333333 272.9134545454545 599.478303030303 274.9090909090909 590.6676363636363 274.9090909090909C577.9743030303031 274.9090909090909 567.7517575757576 269.9539393939393 559.9864242424243 260.0436363636363C552.2210909090909 250.1333333333333 548.3384242424244 236.5711515151515 548.3384242424244 219.3706666666666C548.3384242424244 211.2930909090909 549.3430303030303 203.8671515151515 551.3386666666667 197.1064242424242C553.3207272727274 190.3456969696969 556.2123636363636 184.576 559.9864242424243 179.7973333333333C563.7604848484849 175.0186666666667 568.3219393939394 171.4075151515152 573.670787878788 168.9367272727273C579.0196363636364 166.4795151515151 584.8979393939395 165.2441212121212 591.2921212121213 165.2441212121212C599.8991515151516 165.2441212121212 607.2707878787879 167.2397575757576 613.4070303030304 171.2174545454546C619.5432727272728 175.2087272727273 624.9735757575758 181.2906666666667 629.6843636363637 189.4768484848485C632.3180606060607 194.2962424242424 635.1418181818183 198.070303030303 638.1827878787878 200.7990303030303C641.2237575757575 203.5277575757576 644.957090909091 204.8989090909091 649.3556363636363 204.8989090909091C654.5958787878789 204.8989090909091 658.953696969697 202.9032727272727 662.4155151515153 198.912C665.8773333333335 194.9343030303031 667.6150303030304 190.6850909090909 667.6150303030304 186.1643636363637C667.6150303030304 180.8155151515152 666.013090909091 175.1001212121212 662.8092121212122 169.0181818181819zM865.8618181818182 220.3073939393939C865.8618181818182 207.5190303030303 863.8661818181819 195.7081212121212 859.8749090909091 184.9153939393939C855.8972121212122 174.1090909090909 850.1275151515151 164.8232727272727 842.5658181818183 157.0579393939394C835.017696969697 149.3061818181818 826.003393939394 143.3464242424242 815.5093333333333 139.2058181818181C805.0152727272726 135.0652121212121 793.2179393939393 132.9881212121212 780.1037575757576 132.9881212121212C767.0981818181818 132.9881212121212 755.4094545454545 135.0923636363637 745.024 139.2872727272727C734.6385454545455 143.4821818181818 725.6378181818183 149.4826666666667 718.0353939393939 157.302303030303C710.4329696969696 165.1083636363636 704.6632727272728 174.3398787878787 700.726303030303 184.9832727272727C696.7893333333334 195.6402424242424 694.8344242424243 207.4104242424242 694.8344242424243 220.3073939393939C694.8344242424243 233.3129696969697 696.816484848485 245.2189090909091 700.8077575757576 256.0252121212121C704.7990303030302 266.8315151515151 710.5144242424243 276.0630303030303 717.9539393939394 283.7197575757575C725.4070303030303 291.3764848484848 734.4213333333333 297.2819393939394 745.024 301.4225454545455C755.6130909090909 305.5631515151515 767.315393939394 307.6402424242424 780.1037575757576 307.6402424242424C793.1093333333333 307.6402424242424 804.9202424242425 305.536 815.5093333333333 301.3410909090909C826.0984242424242 297.1461818181818 835.180606060606 291.1728484848485 842.7287272727273 283.4075151515151C850.2768484848485 275.6421818181819 856.0193939393939 266.4106666666667 859.9563636363637 255.7129696969697C863.8933333333333 245.0152727272727 865.8618181818182 233.2179393939394 865.8618181818182 220.3073939393939zM822.7452121212121 220.3073939393939C822.7452121212121 237.833696969697 818.889696969697 251.4637575757576 811.1786666666667 261.2247272727273C803.4676363636364 270.9721212121212 793.1093333333333 275.8593939393939 780.1037575757576 275.8593939393939C771.7139393939394 275.8593939393939 764.3151515151516 273.673696969697 757.9209696969697 269.3294545454545C751.5267878787879 264.9716363636363 746.5987878787879 258.550303030303 743.1369696969698 250.0518787878788C739.6751515151516 241.5534545454545 737.9374545454546 231.6431515151515 737.9374545454546 220.3073939393939C737.9374545454546 209.0938181818181 739.648 199.2785454545454 743.0555151515152 190.8887272727273C746.4630303030303 182.4989090909091 751.3367272727273 176.0775757575758 757.6901818181819 171.6111515151515C764.0300606060607 167.158303030303 771.5103030303031 164.9318787878788 780.1037575757578 164.9318787878788C793.1093333333334 164.9318787878788 803.4676363636365 169.8327272727273 811.1786666666668 179.6344242424242C818.8896969696971 189.4496969696969 822.7452121212123 202.998303030303 822.7452121212123 220.3073939393939zM899.6790303030303 159.1078787878788V345.3944242424243C899.6790303030303 354.0014545454545 901.5932121212122 360.5042424242424 905.4215757575759 364.9027878787879C909.2499393939394 369.3149090909091 914.422303030303 371.5141818181818 920.925090909091 371.5141818181818C927.4278787878789 371.5141818181818 932.6681212121212 369.3420606060606 936.659393939394 364.9842424242425C940.6506666666666 360.6264242424243 942.6327272727274 354.1100606060606 942.6327272727274 345.3944242424243V159.1078787878788C942.6327272727274 150.4058181818182 940.6235151515152 143.8758787878788 936.5779393939393 139.5180606060606C932.5459393939396 135.1602424242424 927.3192727272728 132.9881212121212 920.925090909091 132.9881212121212C914.6259393939393 132.9881212121212 909.5214545454546 135.2416969696969 905.5844848484847 139.7488484848485C901.6475151515152 144.2695757575757 899.6790303030303 150.7180606060605 899.6790303030303 159.1078787878787zM1033.264484848485 184.9153939393939L1058.7461818181819 274.121696969697C1061.474909090909 283.4618181818182 1063.497696969697 289.8288484848485 1064.8145454545456 293.2363636363636C1066.1178181818184 296.6438787878788 1068.5886060606063 299.9020606060606 1072.1997575757575 302.9973333333333C1075.8244848484849 306.0926060606061 1080.7796363636364 307.6402424242424 1087.0652121212122 307.6402424242424C1093.4729696969696 307.6402424242424 1098.4824242424243 306.0926060606061 1102.0935757575758 302.9973333333333C1105.7183030303029 299.9020606060606 1108.2569696969697 296.5488484848485 1109.7231515151516 292.9241212121212C1111.202909090909 289.2993939393939 1113.2392727272727 283.0409696969697 1115.8593939393938 274.121696969697L1141.3546666666666 184.9153939393939L1169.673696969697 280.8824242424243C1171.560727272727 287.8060606060606 1173.081212121212 292.8155151515151 1174.2351515151515 295.9107878787878C1175.3890909090908 299.0060606060606 1177.330424242424 301.7347878787879 1180.0591515151514 304.0969696969696C1182.7878787878785 306.4591515151515 1186.7248484848485 307.6402424242424 1191.8564848484848 307.6402424242424C1197.001696969697 307.6402424242424 1201.4545454545453 305.8482424242424 1205.228606060606 302.2913939393939C1209.0162424242424 298.7209696969697 1210.9032727272727 294.5260606060606 1210.9032727272727 289.6930909090909C1210.9032727272727 285.2945454545454 1209.2741818181817 278.6288484848484 1206.016 269.7231515151515L1170.9362424242424 166.818909090909C1167.8952727272726 158.1168484848485 1165.533090909091 151.8176969696969 1163.8496969696969 147.9350303030303C1162.1798787878786 144.0523636363636 1159.532606060606 140.5905454545454 1155.9078787878789 137.5495757575757C1152.2831515151515 134.5086060606061 1147.328 132.9881212121212 1141.0424242424242 132.9881212121212C1134.5396363636364 132.9881212121212 1129.4215757575757 134.6172121212121 1125.7018181818182 137.8618181818182C1121.9684848484849 141.12 1119.2261818181819 145.097696969697 1117.434181818182 149.8220606060606C1115.6557575757577 154.5464242424242 1113.7144242424245 160.6826666666667 1111.610181818182 168.2307878787879L1087.0652121212122 251.9389090909092L1063.3076363636364 168.2307878787879C1060.1716363636365 156.5827878787879 1056.7641212121212 147.7992727272728 1053.085090909091 141.8802424242425C1049.4196363636365 135.9476363636364 1042.9575757575758 132.9881212121213 1033.7396363636365 132.9881212121213C1029.0152727272728 132.9881212121213 1024.9968484848484 133.9112727272728 1021.6979393939394 135.744S1015.6431515151515 140.1968484848485 1013.430303030303 143.6043636363637C1011.2310303030304 147.0118787878789 1009.289696969697 151.0574545454546 1007.619878787879 155.7275151515152L1003.6829090909092 166.8189090909091L968.9153939393942 269.7231515151516C965.453575757576 279.3619393939395 963.715878787879 286.0276363636364 963.715878787879 289.693090909091C963.715878787879 294.3088484848486 965.5486060606062 298.4630303030304 969.2276363636366 302.1284848484849C972.8930909090913 305.7939393939395 977.4002424242428 307.6402424242425 982.7490909090913 307.6402424242425C989.8899393939396 307.6402424242425 994.7093333333336 305.6174545454546 997.2344242424244 301.5718787878789C999.7459393939396 297.5398787878788 1002.4203636363638 290.6433939393941 1005.257696969697 280.8824242424243L1033.264484848485 184.915393939394zM1283.4385454545454 159.1078787878788C1283.4385454545454 150.5008484848485 1281.3886060606062 143.9980606060606 1277.3023030303032 139.5995151515151C1273.2024242424243 135.1873939393939 1268.0164848484849 132.9881212121212 1261.7173333333335 132.9881212121212C1255.4317575757577 132.9881212121212 1250.313696969697 135.2416969696969 1246.3767272727275 139.7488484848485C1242.4397575757578 144.2695757575758 1240.4848484848487 150.7180606060606 1240.4848484848487 159.1078787878788V281.9956363636363C1240.4848484848487 290.4804848484848 1242.4397575757578 296.8882424242425 1246.3767272727275 301.1781818181818C1250.3136969696973 305.481696969697 1255.4317575757577 307.6402424242424 1261.7173333333335 307.6402424242424C1268.0164848484849 307.6402424242424 1273.2024242424245 305.481696969697 1277.3023030303032 301.1781818181818C1281.3886060606062 296.8882424242425 1283.4385454545454 290.9013333333334 1283.4385454545454 283.2446060606061V159.1078787878788zM1365.8841212121213 170.4300606060606H1450.053818181818C1456.8688484848485 170.4300606060606 1462.0140606060606 168.841696969697 1465.4758787878786 165.6378181818182C1468.9376969696968 162.4339393939394 1470.6618181818183 158.3204848484848 1470.6618181818183 153.2838787878787C1470.6618181818183 148.4644848484848 1468.9648484848485 144.5275151515151 1465.5573333333332 141.4865454545454C1462.149818181818 138.4455757575757 1456.9774545454545 136.9250909090909 1450.053818181818 136.9250909090909H1333.6281212121212C1325.4419393939393 136.9250909090909 1319.3328484848485 138.7035151515152 1315.2872727272727 142.2739393939393C1311.2552727272728 145.8443636363636 1309.2324848484848 150.7180606060605 1309.2324848484848 156.908606060606C1309.2324848484848 160.5740606060605 1310.6579393939394 164.2666666666667 1313.481696969697 168C1316.3190303030303 171.7197575757575 1322.1837575757577 178.5619393939393 1331.1030303030302 188.5265454545454C1340.5517575757576 199.020606060606 1349.1180606060607 208.5100606060606 1356.8290909090908 217.0084848484848C1364.5401212121212 225.5069090909091 1371.6945454545453 233.4487272727272 1378.3059393939393 240.8475151515151C1384.917333333333 248.246303030303 1390.4019393939393 254.5047272727272 1394.7461818181816 259.6499393939394C1399.1039999999998 264.7815757575757 1402.5929696969695 269.193696969697 1405.2130909090909 272.8591515151515H1341.3391515151513C1332.5284848484846 272.8591515151515 1325.8627878787877 273.6465454545454 1321.3556363636362 275.2213333333333C1316.8349090909092 276.7961212121212 1314.5813333333333 280.9367272727273 1314.5813333333333 287.6567272727272C1314.5813333333333 292.5847272727272 1316.2918787878789 296.5216969696969 1319.699393939394 299.4540606060606C1323.106909090909 302.3864242424242 1327.9534545454546 303.8661818181818 1334.252606060606 303.8661818181818H1432.9076363636364C1442.0305454545453 303.8661818181818 1449.0356363636363 302.5221818181818 1453.9093333333333 299.8477575757576C1458.78303030303 297.1733333333333 1461.2266666666667 292.3675151515152 1461.2266666666667 285.4574545454545C1461.2266666666667 283.1495757575757 1460.7515151515152 280.7602424242424 1459.814787878788 278.2894545454545C1458.8644848484848 275.8322424242424 1457.8191515151514 273.8094545454545 1456.665212121212 272.2346666666666C1455.5112727272729 270.6598787878787 1453.936484848485 268.7456969696969 1451.9408484848484 266.4921212121211L1444.5420606060604 258.3873939393939L1365.8841212121213 170.4300606060605zM371.0118787878787 139.2058181818181C342.9100606060606 86.3282424242424 284.7650909090908 52.8775757575757 220.6332121212121 52.8775757575757C124.2724848484848 52.8775757575757 46.1304242424242 131.0060606060606 46.1304242424242 227.3803636363636C46.1304242424242 323.7410909090908 124.2724848484848 401.856 220.6332121212121 401.856C284.7650909090909 401.856 342.9100606060606 368.4189090909091 371.0118787878787 315.5684848484848C377.4603636363636 303.3910303030302 382.4562424242424 293.9830303030302 394.9323636363636 293.9830303030302C407.1641212121212 293.9830303030302 417.1151515151515 303.0652121212121 418.8121212121212 314.7810909090909L419.2058181818182 318.188606060606C419.2058181818182 321.1616969696969 418.5677575757576 323.9311515151515 417.6174545454545 326.5241212121212L414.5764848484848 332.2938181818182C377.2838787878788 401.1364848484848 304.4499393939394 448 220.6332121212121 448C98.7772121212121 448 0 349.2227878787878 0 227.3803636363636C0 105.5107878787878 98.7772121212121 6.7471515151515 220.6332121212121 6.7471515151515C304.4499393939394 6.7471515151515 377.2838787878788 53.5970909090909 414.5764848484848 122.4397575757576L417.6174545454545 128.2501818181818C418.5677575757576 130.8024242424242 419.2058181818182 133.5990303030303 419.2058181818182 136.5585454545454L418.8121212121212 139.9660606060606C417.1151515151515 151.7090909090909 407.1641212121212 160.7641212121212 394.9323636363636 160.7641212121212C382.4562424242424 160.7641212121212 377.4603636363637 151.3425454545454 371.0118787878788 139.2058181818181zM348.8290909090909 257.9529696969697C348.1095757575757 256.6768484848485 323.4016969696969 202.7810909090909 306.038303030303 202.7810909090909C287.8603636363636 202.7810909090909 270.5784242424241 235.3493333333333 251.2329696969696 246.4678787878788C243.4133333333333 250.9478787878788 234.1682424242423 250.7985454545455 234.0732121212121 250.7985454545455C233.9781818181817 250.7985454545455 224.7466666666666 250.9478787878788 216.8998787878787 246.4678787878788C197.5815757575757 235.3493333333333 180.2996363636363 202.7810909090909 162.0945454545454 202.7810909090909C144.7311515151515 202.7810909090909 120.0368484848484 256.6768484848485 119.3444848484848 257.9529696969697C117.484606060606 261.5641212121212 114.9323636363636 265.6232727272727 106.2303030303029 265.8269090909091C97.2024242424241 266.057696969697 84.4140606060605 257.2741818181818 89.9122424242423 244.5672727272727L90.7403636363635 242.6666666666666L91.5277575757575 240.9561212121212C101.0986666666666 222.8053333333333 130.5987878787878 160.8184242424242 162.0945454545454 160.8184242424242C198.0838787878787 160.8184242424242 213.0172121212121 193.7532121212121 222.6288484848484 203.7313939393939C222.6288484848484 203.7313939393939 226.1992727272727 209.0530909090909 234.0732121212121 208.7815757575757C241.9607272727272 209.0530909090909 245.5175757575757 203.7313939393939 245.5175757575757 203.7313939393939C255.1427878787878 193.7532121212121 270.0896969696969 160.8184242424242 306.038303030303 160.8184242424242C337.5476363636363 160.8184242424242 367.020606060606 222.8053333333333 376.6458181818181 240.9561212121212L377.433212121212 242.6666666666666L378.2749090909091 244.5672727272727C383.7595151515151 257.2741818181818 370.9575757575757 266.0576969696969 361.9568484848484 265.826909090909C353.2140606060605 265.6232727272727 350.6753939393939 261.5641212121212 348.8290909090909 257.9529696969696z" />
    <glyph glyph-name="logout"
      unicode="&#xEA3E;"
      horiz-adv-x="448" d=" M83.216 363.076L88.732 364H252V392H88.732C66.108 392 56 377.944 56 364L56.364 84C56.364 65.94 66.192 56 84 56H252V84L84.364 84.196L83.216 363.076zM386.9600000000001 248.752L302.9600000000001 318.752C297.024 323.68 288.204 322.952 283.248 316.9600000000001C278.2920000000001 311.024 279.104 302.176 285.04 297.2480000000001L339.332 252H168C160.272 252 154 245.728 154 238S160.272 224 168 224H344.204L284.088 163.912C278.628 158.452 278.628 149.576 284.088 144.116C286.832 141.372 290.416 140 294 140C297.584 140 301.168 141.372 303.9119999999999 144.088L387.9119999999999 228.088C390.712 230.86 392.1679999999999 234.696 392 238.616C391.804 242.564 389.984 246.232 386.96 248.752z" />
    <glyph glyph-name="mac"
      unicode="&#xEA3F;"
      horiz-adv-x="448" d=" M402.4720000000001 300.972C368.564 276.976 351.624 248.108 351.624 214.34C351.624 173.908 372.568 142.884 414.4840000000001 121.268C403.2280000000001 88.704 386.932 60.34 365.624 36.204C344.288 12.068 324.828 0 307.188 0C298.9000000000001 0 287.588 2.744 273.224 8.232L266.336 10.8920000000001C252.252 16.352 239.82 19.096 229.012 19.096C218.792 19.096 207.62 16.968 195.468 12.656L186.816 9.548L175.9239999999999 5.0959999999999C167.3279999999999 1.708 158.6759999999999 0 149.94 0C129.3599999999999 0 106.6239999999999 16.968 81.7599999999999 50.876C45.9199999999999 99.428 27.9999999999999 152.376 27.9999999999999 209.664C27.9999999999999 250.404 39.1719999999999 283.192 61.5439999999999 308.056C83.8879999999999 332.948 113.5119999999999 345.38 150.388 345.38C164.1639999999999 345.38 177.0439999999999 342.86 189.0279999999999 337.82L197.2599999999999 334.488L205.9119999999999 330.9599999999999C213.612 327.684 219.8279999999999 326.06 224.56 326.06C230.636 326.06 237.384 327.4599999999999 244.776 330.288L256.116 334.712L264.544 337.82C278.0119999999999 342.72 292.9079999999999 345.156 309.204 345.156C347.844 345.156 378.9239999999999 330.428 402.4719999999999 300.972zM310.9680000000001 448L311.6400000000001 436.016C311.6400000000001 410.396 302.3160000000001 387.9120000000001 283.6400000000001 368.592C264.992 349.272 243.292 339.612 218.5680000000001 339.612L217.448 352.044C217.448 373.8280000000001 226.128 394.24 243.46 413.3640000000001C260.764 432.4600000000001 280.8400000000001 443.632 303.6320000000001 446.88L310.9680000000001 448z" />
    <glyph glyph-name="minus"
      unicode="&#xEA40;"
      horiz-adv-x="448" d=" M382.396 196C397.852 196 410.396 208.544 410.396 224S397.88 252 382.396 252H65.604C50.148 252 37.604 239.456 37.604 224C37.604 216.272 40.74 209.272 45.808 204.204S57.876 196 65.604 196H382.396z" />
    <glyph glyph-name="more"
      unicode="&#xEA41;"
      horiz-adv-x="448" d="" />
    <glyph glyph-name="notify"
      unicode="&#xEA42;"
      horiz-adv-x="448" d=" M278.684 84C274.596 59.5 260.092 28 224 28C209.58 28 196.98 33.096 187.516 42.672C175.42 54.9640000000001 170.8 71.9880000000001 169.064 84H43.064C34.748 84 28 90.272 28 98S34.748 112 43.064 112H58.716C89.964 140 95.312 210.392 100.492 253.512C107.1 308.924 114.52 370.664 183.092 387.548C184.408 393.7080000000001 187.376 401.716 193.872 408.352C199.052 413.6720000000001 208.516 420 224 420C248.696 420 260.848 403.312 264.656 388.052C332.892 373.072 339.864 317.8 346.668 264.096C352.1280000000001 220.724 357.784 150.248 390.656 112H404.936C413.252 112 420 105.728 420 98S413.252 84 404.936 84H278.684zM197.512 84C199.08 76.384 202.076 67.816 207.536 62.272C211.764 58.016 217 56 224 56C240.576 56 247.352 71.736 250.124 84H197.512zM97.524 112H353.136C325.6400000000001 157.22 320.04 221.256 315.028 260.988C306.236 330.568 298.732 364 224 364C149.324 364 140.784 323.008 132.104 250.572C127.484 212.044 122.388 151.424 97.524 112z" />
    <glyph glyph-name="palette"
      unicode="&#xEA43;"
      horiz-adv-x="448" d=" M56 392H140V308H56zM168 392H252V308H168zM280 392H364V308H280zM56 280H140V196H56zM168 280H252V196H168zM280 280H364V196H280zM56 168H140V84H56zM168 168H252V84H168zM280 168H364V84H280z" />
    <glyph glyph-name="paste"
      unicode="&#xEA44;"
      horiz-adv-x="448" d=" M238.05628 321.94372C238.05628 321.94372 224 336 210 336S56 336 56 336S28 336 28 308C28 268.40296 28 365.2698000000001 28 56C28 56 28 28 56 28S224 28 252 28S280 56 280 56S280 252 280 266S266 294 266 294L238.05628 321.94372zM252 224H168V308C168 308 168 322 182 322S196 308 196 308V252H252C252 252 266 252 266 238S252 224 252 224z M378 420H336C336 435.46468 323.46468 448 308 448H224C208.53532 448 196 435.46468 196 420H154C130.8398 420 112 401.1602000000001 112 378V364H140V378C140 385.71092 146.27536 392 154 392H224H308H378C385.72464 392 392 385.71092 392 378V98C392 90.28908 385.72464 84 378 84H308V56H378C401.1602 56 420 74.8398 420 98V378C420 401.1602000000001 401.1602 420 378 420z" />
    <glyph glyph-name="pen"
      unicode="&#xEA45;"
      horiz-adv-x="448" d=" M351.288 416.024L416.052 351.288C421.344 345.968 421.344 337.428 416.052 332.108L391.916 308.0560000000001L308 392L332.108 416.024C337.4000000000001 421.3160000000001 345.968 421.3160000000001 351.288 416.024zM196 112L364 280L280.112 363.916L112.084 195.916L196 112zM82.74 166.684L71.008 154.924C68.936 152.852 67.592 150.192 67.172 147.28L56.14 71.512C55.496 67.256 56.924 63 59.976 59.976C63 56.924 67.256 55.5239999999999 71.512 56.14L147.308 67.172C150.192 67.592 152.88 68.936 154.952 71.008L166.684 82.768L82.74 166.684z" />
    <glyph glyph-name="plusfill"
      unicode="&#xEA46;"
      horiz-adv-x="448" d=" M224 420C115.92 420 28 332.08 28 224S115.92 28 224 28S420 115.92 420 224S332.08 420 224 420zM364 196H252V84H196V196H84V252H196V364H252V252H364V196z" />
    <glyph glyph-name="plusthin"
      unicode="&#xEA47;"
      horiz-adv-x="448" d=" M252 196H382.396C397.852 196 410.396 208.544 410.396 224S397.88 252 382.396 252H252V382.396C252 397.852 239.456 410.396 224 410.396S196 397.88 196 382.396V252H65.604C50.148 252 37.604 239.456 37.604 224C37.604 216.272 40.74 209.272 45.808 204.204S57.876 196 65.604 196H196V65.604C196 57.876 199.136 50.876 204.204 45.808C209.272 40.74 216.272 37.604 224 37.604C239.456 37.604 252 50.12 252 65.604V196z" />
    <glyph glyph-name="poll"
      unicode="&#xEA48;"
      horiz-adv-x="448" d=" M392 364C392 348.544 379.456 336 364 336H28C12.544 336 0 348.544 0 364V420C0 435.456 12.544 448 28 448H364C379.456 448 392 435.456 392 420V364zM280 84C280 68.544 267.456 56 252 56H28C12.544 56 0 68.544 0 84V140C0 155.456 12.544 168 28 168H252C267.456 168 280 155.456 280 140V84zM420 308H28C12.544 308 0 295.456 0 280V224C0 208.544 12.544 196 28 196H420C435.456 196 448 208.544 448 224V280C448 295.456 435.456 308 420 308zM406 224H42C26.544 224 28 236.544 28 252S26.544 280 42 280H406C421.456 280 420 267.456 420 252S421.456 224 406 224z" />
    <glyph glyph-name="post"
      unicode="&#xEA49;"
      horiz-adv-x="448" d="" />
    <glyph glyph-name="process"
      unicode="&#xEA4A;"
      horiz-adv-x="448" d=" M224 28C115.948 28 28 115.92 28 224C28 239.456 40.516 252 56 252C71.484 252 84 239.456 84 224C84 146.804 146.804 84 224 84S364 146.804 364 224S301.196 364 224 364C208.516 364 196 376.544 196 392S208.516 420 224 420C332.052 420 420 332.08 420 224S332.052 28 224 28z" />
    <glyph glyph-name="project"
      unicode="&#xEA4B;"
      horiz-adv-x="448" d=" M277.424 224.392C280.084 224.616 280 228.172 280 231.084V272.272C280 275.632 280.084 278.2920000000001 277.172 278.964L244.608 284.088C243.04 289.212 241.024 295.232 237.692 302.344C239.904 305.704 243.544 310.1280000000001 247.996 315.7000000000001L257.488 327.712L259.168 331.94C259.168 335.944 248.5 347.7320000000001 227.136 367.584L222.46 369.348L218.036 367.808L191.744 347.984C185.752 351.12 180.18 353.36 175.056 354.9L169.932 387.716C169.736 390.6 166.6 392 163.268 392H121.828C118.468 392 116.256 391.496 115.136 387.94C113.372 381.024 111.552 370.328 110.012 354.256C103.544 352.268 98 350.14 92.876 347.452L67.228 367.668L62.58 369.292C57.008 369.292 33.152 345.296 26.712 336.364C25.592 335.244 25.172 333.732 25.172 331.94L26.712 327.488C34.972 317.464 41.636 309.0079999999999 46.76 301.868C43.68 295.876 41.216 290.08 39.648 284.956L5.152 279.608C2.464 279.412 0 275.856 0 272.944V231.728C0 228.396 2.464 225.484 5.348 225.288L39.172 219.94C40.964 214.368 43.652 208.124 46.984 201.684L36.54 188.104L27.412 176.288L25.844 172.06C25.844 168.056 36.54 156.268 57.932 136.444L62.608 134.652C64.596 134.652 65.94 135.128 67.06 136.22L93.324 156.044C99.372 152.908 104.916 150.6959999999999 110.04 149.156L115.192 116.3399999999999C115.36 113.428 118.468 111.9999999999999 121.828 111.9999999999999H163.2959999999999C166.6279999999999 111.9999999999999 168.84 112.504 169.96 116.116C171.696 123.004 173.516 133.952 175.084 149.996C181.104 151.76 186.6759999999999 153.692 192.22 156.576L217.84 136.36L222.516 134.708C228.088 134.708 251.468 158.928 258.384 167.86L259.9239999999999 172.06L258.384 176.484C250.124 186.508 243.46 194.964 238.336 202.104C241.416 208.124 243.88 213.92 245.448 219.044L277.4239999999999 224.392zM182.84 211.68C171.696 200.564 158.34 194.992 142.52 194.992C111.132 194.992 85.54 220.584 85.54 252C85.54 283.416 111.132 309.008 142.52 309.008C173.964 309.008 199.556 283.416 199.556 252C199.556 236.18 194.012 222.824 182.84 211.68zM448 125.888V157.052C448 159.516 436.856 161.728 414.82 163.94C412.8040000000001 168.168 410.592 172.2 408.156 175.532C415.7440000000001 192.248 419.496 202.468 419.496 206.276L418.6 207.844C400.7920000000001 218.316 391.636 223.44 390.992 223.44L389.676 222.992C383.628 217 376.74 208.516 369.18 198.044L362.488 198.492L355.824 198.044C351.596 204.2880000000001 336.476 223.44 334.04 223.44L327.3479999999999 219.856L314.1879999999999 212.296L306.4319999999999 207.844L305.536 206.276C305.536 202.4960000000001 309.3159999999999 192.2480000000001 316.8759999999999 175.532C314.4119999999999 172.2 313.7399999999999 168.168 311.724 163.94C289.632 161.728 279.9999999999999 159.516 279.9999999999999 157.052V125.888C279.9999999999999 123.452 289.6319999999999 121.212 311.6679999999999 118.972C313.4599999999999 114.968 314.9159999999999 111.216 317.604 107.408C310.0159999999999 90.692 305.8719999999999 80.444 305.8719999999999 76.664L306.5719999999999 75.096C324.604 64.624 333.8439999999999 59.304 334.0679999999999 59.304C336.5039999999999 59.304 351.5959999999999 78.652 355.8239999999999 84.896L362.4599999999999 84.476L369.1239999999999 84.896C373.3519999999999 78.652 388.4999999999999 59.304 390.9359999999999 59.304C391.1599999999998 59.304 400.5399999999999 64.624 418.5439999999999 75.096L419.4399999999999 76.664C419.4399999999999 80.444 415.6599999999999 90.692 408.0999999999999 107.408C410.7879999999999 111.216 412.9999999999999 114.9960000000001 414.7639999999999 118.972C436.8559999999999 121.212 447.9999999999999 123.452 447.9999999999999 125.888zM362.4600000000001 112.952C346.668 112.952 333.9840000000001 125.6640000000001 333.9840000000001 141.456C333.9840000000001 156.828 347.116 169.9880000000001 362.4600000000001 169.9880000000001C377.86 169.9880000000001 390.992 156.828 390.992 141.456C390.992 125.6640000000001 378.3080000000001 112.952 362.4600000000001 112.952z" />
    <glyph glyph-name="question"
      unicode="&#xEA4C;"
      horiz-adv-x="448" d=" M224 420C115.92 420 28 332.08 28 224S115.92 28 224 28S420 115.92 420 224S332.08 420 224 420zM240.352 98.588C235.2 93.996 229.208 91.7 222.432 91.7C215.432 91.7 209.328 93.968 204.092 98.504C198.856 103.04 196.252 109.368 196.252 117.544C196.252 124.768 198.772 130.872 203.84 135.8C208.88 140.728 215.096 143.192 222.432 143.192C229.656 143.192 235.76 140.728 240.688 135.8C245.616 130.872 248.108 124.768 248.108 117.544C248.108 109.48 245.532 103.152 240.352 98.588zM304.668 258.02C300.7200000000001 250.6840000000001 295.988 244.3280000000001 290.5560000000001 238.98C285.096 233.6320000000001 275.324 224.672 261.212 212.044C257.2920000000001 208.488 254.156 205.352 251.804 202.664C249.4520000000001 199.948 247.688 197.484 246.5680000000001 195.244L243.908 188.524L241.08 176.736C238.896 164.808 232.064 158.844 220.584 158.844C214.62 158.844 209.58 160.776 205.52 164.696C201.404 168.588 199.388 174.384 199.388 182.084C199.388 191.716 200.872 200.088 203.868 207.144C206.836 214.2 210.812 220.388 215.74 225.736C220.668 231.084 227.332 237.412 235.704 244.776C243.04 251.216 248.36 256.06 251.636 259.336C254.912 262.612 257.656 266.252 259.896 270.284C262.136 274.316 263.2559999999999 278.656 263.2559999999999 283.36C263.2559999999999 292.544 259.8399999999999 300.3 253.0079999999999 306.6C246.176 312.872 237.384 316.036 226.576 316.036C213.948 316.036 204.652 312.844 198.688 306.488S187.656 290.724 183.5399999999999 278.32C179.62 265.356 172.228 258.8879999999999 161.3359999999999 258.8879999999999C154.8959999999999 258.8879999999999 149.4919999999999 261.156 145.0679999999999 265.692C140.6439999999999 270.2 138.4319999999999 275.128 138.4319999999999 280.392C138.4319999999999 291.312 141.9319999999999 302.344 148.9319999999999 313.544C155.9319999999999 324.744 166.1519999999999 334.012 179.5919999999999 341.348S208.6839999999999 352.38 226.6039999999999 352.38C243.2359999999999 352.38 257.9359999999999 349.3 270.6759999999999 343.168C283.4159999999999 337.036 293.272 328.664 300.2159999999999 318.108C307.1599999999999 307.552 310.6319999999999 296.072 310.6319999999999 283.668C310.604 273.896 308.616 265.356 304.6679999999999 258.02z" />
    <glyph glyph-name="quota"
      unicode="&#xEA4D;"
      horiz-adv-x="448" d=" M196 420C87.75284 420 0 332.24884 0 224C0 115.75284 87.75284 28 196 28S392 115.75284 392 224H196V420z M224 448V252H420C420 360.24884 332.24716 448 224 448z" />
    <glyph glyph-name="quote"
      unicode="&#xEA4E;"
      horiz-adv-x="448" d=" M316.68 34.244C312.088 34.244 307.608 35.868 304.108 38.8920000000001L218.8200000000001 112.0000000000001H61.46C43.008 112.0000000000001 28 127.0080000000001 28 145.46V358.5400000000001C28 376.9920000000001 43.008 392.0000000000001 61.46 392.0000000000001H386.54C404.992 392.0000000000001 420 376.9920000000001 420 358.5400000000001V145.46C420 127.0080000000001 404.992 112.0000000000001 386.54 112.0000000000001H336V53.5360000000001C336 42.8960000000001 327.32 34.2440000000001 316.68 34.2440000000001zM61.46 364C58.464 364 56 361.536 56 358.54V145.46C56 142.4640000000001 58.464 140 61.46 140H229.18L308 72.436V140H386.54C389.536 140 392 142.464 392 145.46V358.54C392 361.5360000000001 389.536 364 386.54 364H61.46z" />
    <glyph glyph-name="refresh"
      unicode="&#xEA4F;"
      horiz-adv-x="448" d=" M382.396 382.396C341.852 422.94 285.88 448 224 448C127.988 448 46.06 387.576 14.224 302.68L66.668 283.024C90.552 346.6960000000001 151.984 392.028 224 392.028C270.396 392.028 312.396 373.212 342.776 342.804L280 280.028H448V448.028L382.396 382.424zM224 56C177.604 56 135.604 74.816 105.224 105.224L168 168H0V0L65.632 65.632C106.176 25.088 162.148 0 224 0C320.04 0 401.94 60.424 433.776 145.3200000000001L381.3320000000001 164.9760000000001C357.4480000000001 101.3040000000001 296.016 55.9720000000001 224.0000000000001 55.9720000000001z" />
    <glyph glyph-name="reply"
      unicode="&#xEA50;"
      horiz-adv-x="448" d=" M196 291.508V350C196 355.488 192.808 360.472 187.796 362.74C182.756 365.036 176.904 364.112 172.788 360.528L60.788 262.528C57.736 259.868 56 256.032 56 252S57.736 244.132 60.788 241.472L172.788 143.472C175.392 141.204 178.668 140 182 140L187.796 141.2599999999999C192.808 143.5279999999999 196 148.512 196 154V215.096C225.204 215.068 295.652 213.556 295.652 143.388C295.652 106.148 267.96 75.096 231.196 67.9C290.276 75.572 336 123.424 336 181.916C336 288.848 218.456 291.452 196 291.508z" />
    <glyph glyph-name="reply_all"
      unicode="&#xEA51;"
      horiz-adv-x="448" d=" M252 291.508V350C252 355.488 248.808 360.472 243.796 362.74C238.7560000000001 365.036 232.9040000000001 364.112 228.7880000000001 360.528L116.7880000000001 262.528C113.736 259.868 112 256.032 112 252S113.736 244.132 116.7880000000001 241.472L228.7880000000001 143.472C231.392 141.204 234.6680000000001 140 238.0000000000001 140L243.7960000000001 141.2599999999999C248.8080000000001 143.5279999999999 252.0000000000001 148.512 252.0000000000001 154V215.096C281.204 215.068 351.6520000000001 213.556 351.6520000000001 143.388C351.6520000000001 106.148 323.9600000000001 75.096 287.1960000000001 67.9C346.276 75.572 392.0000000000001 123.424 392.0000000000001 181.916C392.0000000000001 288.848 274.456 291.452 252.0000000000001 291.508zM75.796 252L177.884 354.088C183.344 359.548 183.344 368.424 177.884 373.884S163.548 379.344 158.088 373.884L46.088 261.884C40.628 256.424 40.628 247.548 46.088 242.088L158.088 130.088C160.832 127.372 164.416 126 168 126S175.168 127.372 177.912 130.088C183.372 135.548 183.372 144.424 177.912 149.884L75.796 252.0000000000001z" />
    <glyph glyph-name="search"
      unicode="&#xEA52;"
      horiz-adv-x="448" d=" M414.988 81.508L340.9000000000001 155.148C359.212 182.2240000000001 369.936 214.844 369.936 249.956C369.936 343.8680000000001 293.384 420 198.968 420S28 343.8680000000001 28 249.9280000000001C28 156.016 104.552 79.884 198.968 79.884C232.568 79.884 263.788 89.6560000000001 290.2200000000001 106.316L365.12 31.864C370.496 26.516 384.804 26.9640000000001 389.592 31.7520000000001L414.736 56.7560000000001C419.692 61.6560000000001 423.444 73.0800000000001 414.988 81.5080000000001zM198.912 139.3C137.48 139.3 87.696 188.832 87.696 249.928C87.696 311.024 137.48 360.584 198.912 360.584S310.1280000000001 311.052 310.1280000000001 249.928C310.156 188.832 260.344 139.3 198.912 139.3z" />
    <glyph glyph-name="settings"
      unicode="&#xEA53;"
      horiz-adv-x="448" d=" M416.052 261.7440000000001L370.468 268.9120000000001C368.256 276.0800000000001 365.456 284.5080000000001 360.78 294.476C363.8880000000001 299.1520000000001 368.956 305.396 375.2 313.18L388.4720000000001 330.0080000000001C390.04 332.192 390.7960000000001 334.068 390.7960000000001 335.944C390.7960000000001 341.544 375.872 358.064 345.9680000000001 385.8400000000001C343.7840000000001 387.38 341.6 388.3040000000001 339.4160000000001 388.3040000000001C336.9240000000001 388.3040000000001 334.7960000000001 387.688 333.2280000000001 386.148L296.4080000000001 358.372C288.0360000000001 362.7680000000001 280.2240000000001 365.876 273.0560000000001 368.06L265.8880000000001 413.98C265.6080000000001 418.04 261.2400000000001 420 256.5920000000001 420H198.548C193.8720000000001 420 190.764 419.3 189.196 414.3160000000001C186.704 404.6280000000001 184.184 389.648 182.0000000000001 367.164C172.9560000000001 364.3640000000001 165.2000000000001 361.396 158.0320000000001 357.644L122.1360000000001 385.924C119.9520000000001 387.492 117.7960000000001 388.2200000000001 115.6400000000001 388.2200000000001C107.8280000000001 388.2200000000001 74.452 354.62 65.4080000000001 342.132C63.8400000000001 340.564 63.2520000000001 338.4360000000001 63.2520000000001 335.944C63.2520000000001 334.068 63.8400000000001 331.884 65.4080000000001 329.728C76.972 315.6720000000001 86.2960000000001 303.856 93.4640000000001 293.888C89.1240000000001 285.432 85.6800000000001 277.34 83.4960000000001 270.144L35.1960000000001 262.668C31.4440000000001 262.388 28.0000000000001 257.376 28.0000000000001 253.316V195.636C28.0000000000001 190.96 31.4440000000001 186.9 35.5040000000001 186.62L82.8520000000001 179.116C85.372 171.332 89.1240000000001 162.5680000000001 93.8000000000001 153.552C90.3560000000001 148.876 85.6800000000001 142.632 79.1280000000001 134.54L66.3320000000001 117.992C64.7920000000001 115.8080000000001 64.1480000000001 113.932 64.1480000000001 112.056C64.1480000000001 106.428 79.1280000000001 89.936 109.0600000000001 62.188C111.2440000000001 60.62 113.4280000000001 59.696 115.6120000000001 59.696C118.4120000000001 59.696 120.2880000000001 60.34 121.8560000000001 61.88L158.6200000000001 89.628C167.0760000000001 85.232 174.8600000000001 82.124 182.0000000000001 79.968L189.196 34.0199999999999C189.5040000000001 29.9879999999999 193.8720000000001 27.9999999999999 198.548 27.9999999999999H256.5920000000001C261.2680000000001 27.9999999999999 264.348 28.6999999999999 265.9160000000001 33.74C268.3520000000001 43.4 270.9000000000001 58.6879999999999 273.0840000000001 81.1719999999999C281.5120000000001 83.6639999999999 289.3240000000001 86.3519999999999 297.0800000000001 90.4119999999999L332.9480000000001 62.132C335.1040000000001 60.5919999999999 337.2600000000001 59.8359999999999 339.5000000000001 59.8359999999999C347.3120000000001 59.8359999999999 380.0440000000001 93.7439999999999 389.7320000000001 106.2319999999999C391.2720000000001 107.7719999999999 391.8880000000001 109.6479999999999 391.8880000000001 112.1399999999999C391.8880000000001 114.3239999999999 391.2720000000001 116.144 389.7320000000001 118.3279999999999C378.1680000000001 132.384 368.8440000000001 144.1999999999999 361.6760000000001 154.1959999999999C366.016 162.596 369.4600000000001 170.716 371.6160000000001 177.884L416.4160000000001 185.3599999999999C420.112 185.6679999999999 420.0000000000001 190.624 420.0000000000001 194.7119999999999V252.392C420.0000000000001 257.068 420.112 260.82 416.052 261.7439999999999zM283.976 167.58C268.352 151.984 249.676 144.1999999999999 227.5 144.1999999999999C183.568 144.1999999999999 147.728 180.04 147.728 224.028C147.728 267.988 183.568 303.856 227.5 303.856C271.516 303.856 307.356 268.016 307.356 224.028C307.384 201.88 299.6 183.1759999999999 283.976 167.58z" />
    <glyph glyph-name="share"
      unicode="&#xEA54;"
      horiz-adv-x="448" d=" M320.656 167.664C303.1280000000001 167.608 287.644 159.544 277.284 147.196L165.564 207.956C167.86 214.06 169.288 220.584 169.288 227.5C169.288 231.168 168.868 234.724 168.168 238.196L290.752 302.26C301.168 289.016 317.2960000000001 280.336 335.58 280.336C366.856 280.3640000000001 392.112 305.368 392 336.224C391.8880000000001 367.052 366.436 392.028 335.132 392C303.856 391.972 278.6 366.968 278.712 336.14C278.74 331.016 279.664 326.172 281.008 321.468L159.852 258.132C149.688 273.252 132.3 283.22 112.532 283.164C81.256 283.08 55.944 258.02 56 227.192C56.056 196.364 81.48 171.444 112.756 171.528C128.912 171.584 143.388 178.36 153.664 189.084L266.6720000000001 127.596C265.1600000000001 122.528 264.0680000000001 117.264 264.096 111.692C264.1520000000001 80.864 289.548 55.916 320.852 56C352.1280000000001 56.084 377.44 81.144 377.384 111.972C377.328 142.828 351.932 167.748 320.656 167.6640000000001z" />
    <glyph glyph-name="shared_folder"
      unicode="&#xEA55;"
      horiz-adv-x="448" d=" M392 364H236.628C214.2 364 196.028 382.2 196.056 404.628C196 420 180.572 420 180.572 420H43.512C34.972 420 28 413.028 28 404.488V112.868S28 84 56 84H392C420 84 420 112.448 420 112.448V336C420 363.552 392 364 392 364zM178.024 225.988C178.024 221.984 177.072 218.204 175.728 214.648L241.304 178.976C247.352 186.172 256.144 191.044 266.364 191.072C284.62 191.1280000000001 299.4600000000001 176.568 299.488 158.564C299.516 140.56 284.76 125.944 266.504 125.888C248.2480000000001 125.832 233.408 140.3920000000001 233.38 158.396C233.38 161.616 234.3320000000001 164.5560000000001 235.2280000000001 167.496L168.84 203.588C162.8200000000001 197.3439999999999 154.448 193.34 145.0400000000001 193.312C126.756 193.256 111.9440000000001 207.816 111.888 225.82C111.86 243.796 126.644 258.44 144.9 258.468C156.4080000000001 258.524 166.0680000000001 252.392 172.0040000000001 243.6L243.628 281.036C242.8720000000001 283.78 241.892 286.44 241.892 289.38C241.808 307.384 256.564 322 274.8200000000001 322S307.9160000000001 307.44 308.0000000000001 289.436C308.0840000000001 271.432 293.3280000000001 256.844 275.0720000000001 256.8160000000001C264.432 256.8160000000001 255.36 262.08 249.2840000000001 269.808L176.7920000000001 231.924L178.024 225.9880000000001z" />
    <glyph glyph-name="showpass"
      unicode="&#xEA56;"
      horiz-adv-x="448" d=" M56.28 168H2.016C29.288 264.936 118.356 336 224 336C329.644 336 418.712 264.936 445.9840000000001 168H391.7200000000001C366.352 235.984 300.832 284.396 224 284.396S81.648 235.984 56.28 168zM224 84C254.94 84 280 109.06 280 140S254.94 196 224 196S168 170.94 168 140S193.06 84 224 84z" />
    <glyph glyph-name="social"
      unicode="&#xEA57;"
      horiz-adv-x="448" d=" M392 112C378.38528 112 366.352 106.52992 356.67072 98.4883200000001L271.29984 159.4163200000001C276.71616 170.57152 279.99552 182.82432 279.99552 196C279.99552 214.10368 274.0908800000001 230.832 264.35584 244.50944L364.2150400000001 344.4224C372.52992 339.55264 381.66464 336 392 336C422.95232 336 448 361.04768 448 392S422.95232 448 392 448S336 422.95232 336 392C336 381.66464 339.55264 372.52992 344.4224000000001 364.21952L244.5632 264.30208C230.78272 274.14464 214.15744 280 196 280C163.95456 280 136.38912 261.79328 122.22784 235.32096L54.79488 257.85088C52.06208 270.42624 41.3952 280 28 280C12.5216 280 0 267.4784 0 252S12.5216 224 28 224C35.05152 224 41.34592 226.8448 46.26496 231.168L113.31264 208.79936C112.65408 204.58368 112 200.37696 112 196C112 149.62304 149.62304 112 196 112C219.07648 112 240.02048 121.35424 255.23008 136.44736L340.04992 75.90464C337.63968 69.67296 336 63.05152 336 56C336 25.10592 361.04768 0 392 0S448 25.10592 448 56S422.95232 112 392 112z" />
    <glyph glyph-name="space"
      unicode="&#xEA58;"
      horiz-adv-x="448" d=" M28 266V238C28 214.844 46.844 196 70 196H98C105.7 196 112 189.7 112 182V154C112 146.3 105.7 140 98 140H28V112H98C121.156 112 140 130.844 140 154V182C140 205.156 121.156 224 98 224H70C62.3 224 56 230.3 56 238V266C56 273.7000000000001 62.3 280 70 280H140V308H70C46.844 308 28 289.156 28 266zM238 308H168V112H196V196H238C261.156 196 280 214.844 280 238V266C280 289.156 261.156 308 238 308zM252 238C252 230.3 245.7 224 238 224H196V280H238C245.7 280 252 273.7000000000001 252 266V238zM350 280H420V308H350C326.844 308 308 289.156 308 266V154C308 130.844 326.844 112 350 112H420V140H350C342.3 140 336 146.3 336 154V266C336 273.7000000000001 342.3 280 350 280z" />
    <glyph glyph-name="stream"
      unicode="&#xEA59;"
      horiz-adv-x="448" d=" M386.54 308H362.124L362.544 280H386.54C389.536 280 392 277.536 392 274.54V145.46C392 142.4640000000001 389.536 140 386.54 140H336V70L257.18 140H175.756L150.864 112H246.8200000000001L332.108 36.456C335.608 33.432 340.0600000000001 31.808 344.68 31.808C355.3200000000001 31.808 364 40.46 364 51.1V112H386.54C404.992 112 420 127.008 420 145.46V274.54C420 292.992 404.992 308 386.54 308zM84 135.1V196H61.46C43.008 196 28 211.008 28 229.46V358.54C28 376.992 43.008 392 61.46 392H302.54C320.992 392 336 376.992 336 358.54V229.46C336 211.008 320.992 196 302.54 196H201.18L115.892 120.456C112.392 117.432 107.94 115.808 103.32 115.808C92.68 115.808 84 124.46 84 135.1zM61.46 364C58.464 364 56 361.536 56 358.54V229.46C56 226.464 58.464 224 61.46 224H112V154L190.82 224H302.54C305.536 224 308 226.464 308 229.46V358.54C308 361.5360000000001 305.536 364 302.54 364H61.46z" />
    <glyph glyph-name="sync"
      unicode="&#xEA5A;"
      horiz-adv-x="448" d=" M334.124 196C321.524 147.784 277.788 112 225.26 112C186.844 112 153.244 131.264 132.972 160.44L168.84 196H56V84L92.624 120.344C123.564 81.284 171.304 56 225.26 56C309.092 56 378.532 116.564 392 196H334.124zM113.428 252C125.916 300.216 169.344 336 221.48 336C259.616 336 292.936 316.736 313.0680000000001 287.56L277.48 252H392V364L354.396 327.656C323.68 366.716 275.6600000000001 392 222.096 392C138.88 392 69.356 331.436 56 252H113.428z" />
    </font>
</defs>
</svg>
